Tags
Language
Tags

BBC - Sex, Lies and Love Bites: The Agony Aunt Story (2015)

Posted By:
BBC - Sex, Lies and Love Bites: The Agony Aunt Story (2015)

BBC - Sex, Lies and Love Bites: The Agony Aunt Story (2015)
HDTV | 1280x720 | .MKV/AVC @ 1764 Kbps | 59min 4s | 800 MiB
Audio: English AAC 127 kbps, 2 channels | Subs: English
Genre: Documentary

Psychotherapist and agony aunt Philippa Perry presents a witty and revealing look at the problem page's enduring appeal. In the documentary Philippa picks her way through three centuries of advice on broken hearts, cheating partners and adolescent angst to uncover a fascinating portrait of our social history. She talks to fellow agony aunts and uncles like the Telegraph's Graham Norton and the Sun's Deidre Sanders about their experiences, as well as exploring the work of advice columnists past, like the 17th-century inventor of the problem page, John Dunton. The advice may change, but she discovers that, when it come to subjects like love and courtship, the same old problems keep on cropping up. Through the work of generations of advice columnists Philippa charts the developing battle of the sexes, the rise of the middle classes and a revolution in social attitudes. For much of the 20th century, agony aunts avoided any mention of trouble in the bedroom. Philippa explores the pioneering work of agony aunts like Claire Rayner, who began to offer frank sex advice in the 1960s. Today, sex takes pride of place on the problem page, as Philippa discovers for herself when she takes a starring role in the Sun's photo casebook, which is famous for its real-life problems illustrated with pictures of semi-clad ladies. At a time when advice is more easily available than ever before, Philippa reflects on why agony aunts are often still our first port of call, and on what makes reading about other people's problems so irresistible.


General
Unique ID : 245812653488606348160718661974070584623 (0xB8EDCB85886688C8A28007AFDC0EE52F)
Complete name : BBC.Six.Lies.and.Love.Bites.720p.mkv
Format : Matroska
Format version : Version 4 / Version 2
File size : 800 MiB
Duration : 59 min 4 s
Overall bit rate : 1 894 kb/s

Video
ID : 1
Format : AVC
Format/Info : Advanced Video Codec
Format profile : High@L3.1
Format settings, CABAC : Yes
Format settings, ReFrames : 4 frames
Codec ID : V_MPEG4/ISO/AVC
Duration : 59 min 4 s
Bit rate : 1 764 kb/s
Width : 1 280 pixels
Height : 720 pixels
Display aspect ratio : 16:9
Frame rate mode : Constant
Frame rate : 25.000 FPS
Color space : YUV
Chroma subsampling : 4:2:0
Bit depth : 8 bits
Scan type : Progressive
Bits/(Pixel*Frame) : 0.077
Stream size : 745 MiB (93%)
Encoding settings : cabac=1 / ref=4 / deblock=1:0:0 / analyse=0x3:0x113 / me=umh / subme=9 / psy=1 / psy_rd=1.00:0.00 / mixed_ref=1 / me_range=24 / chroma_me=1 / trellis=1 / 8x8dct=1 / cqm=0 / deadzone=21,11 / fast_pskip=0 / chroma_qp_offset=-2 / threads=3 / lookahead_threads=1 / sliced_threads=0 / nr=0 / decimate=1 / interlaced=0 / bluray_compat=0 / constrained_intra=0 / bframes=6 / b_pyramid=2 / b_adapt=2 / b_bias=0 / direct=1 / weightb=1 / open_gop=0 / weightp=2 / keyint=250 / keyint_min=25 / scenecut=40 / intra_refresh=0 / rc_lookahead=40 / rc=crf / mbtree=1 / crf=20.0 / qcomp=0.60 / qpmin=0 / qpmax=69 / qpstep=4 / ip_ratio=1.40 / aq=1:1.00
Language : English
Default : Yes
Forced : No

Audio
ID : 2
Format : AAC
Format/Info : Advanced Audio Codec
Format profile : LC
Codec ID : A_AAC
Duration : 59 min 3 s
Bit rate : 127 kb/s
Channel(s) : 2 channels
Channel positions : Front: L R
Sampling rate : 48.0 kHz
Frame rate : 46.875 FPS (1024 spf)
Compression mode : Lossy
Delay relative to video : 9 ms
Stream size : 53.8 MiB (7%)
Language : English
Default : Yes
Forced : No

Text
ID : 3
Format : UTF-8
Codec ID : S_TEXT/UTF8
Codec ID/Info : UTF-8 Plain Text
Duration : 58 min 33 s
Bit rate : 114 b/s
Count of elements : 1011
Stream size : 49.0 KiB (0%)
Language : English
Default : No
Forced : No


Screenshots:

BBC - Sex, Lies and Love Bites: The Agony Aunt Story (2015)

BBC - Sex, Lies and Love Bites: The Agony Aunt Story (2015)

BBC - Sex, Lies and Love Bites: The Agony Aunt Story (2015)

BBC - Sex, Lies and Love Bites: The Agony Aunt Story (2015)