BBC - Sex Map of Britain Series 1: Four Pounds for Sex (2017)

Posted By: notbanned
BBC - Sex Map of Britain Series 1: Four Pounds for Sex (2017)

BBC - Sex Map of Britain Series 1: Four Pounds for Sex (2017)
HDTV | 1280x720 | .MP4/AVC @ 2800 Kbps | 21 min 43 s | 460 MiB
Audio: English AAC 160 kbps, 2 channels | Subs: English
Genre: Documentary

Sheil Road in Liverpool is one of the cheapest places to buy sex in the UK. This is the stark and unforgiving story of the women driven to sell sex, some for as little as four pounds. We hear the heart wrenching story of Natalie, whose life has dramatically changed over 12 months living on the road. Now trapped in a cycle of soliciting sex illegally to feed her drug addiction, and with competition driving down the prices she’s able to charge, can rehab be an escape route for her?


General
Complete name : BBC.Six.Map.of.Britain.Series.1.Four.Pounds.for.Six.720p.mp4
Format : MPEG-4
Format profile : Base Media
Codec ID : isom (isom)
File size : 460 MiB
Duration : 21 min 43 s
Overall bit rate mode : Variable
Overall bit rate : 2 961 kb/s

Video
ID : 1
Format : AVC
Format/Info : Advanced Video Codec
Format profile : High@L4.1
Format settings, CABAC : Yes
Format settings, ReFrames : 4 frames
Codec ID : avc1
Codec ID/Info : Advanced Video Coding
Duration : 21 min 43 s
Bit rate : 2 800 kb/s
Maximum bit rate : 7 403 kb/s
Width : 1 280 pixels
Height : 720 pixels
Display aspect ratio : 16:9
Frame rate mode : Constant
Frame rate : 25.000 FPS
Color space : YUV
Chroma subsampling : 4:2:0
Bit depth : 8 bits
Scan type : Progressive
Bits/(Pixel*Frame) : 0.122
Stream size : 434 MiB (94%)
Encoding settings : cabac=1 / ref=1 / deblock=1:0:0 / analyse=0x3:0x3 / me=dia / subme=1 / psy=1 / psy_rd=1.00:0.00 / mixed_ref=0 / me_range=16 / chroma_me=1 / trellis=0 / 8x8dct=1 / cqm=0 / deadzone=21,11 / fast_pskip=1 / chroma_qp_offset=0 / threads=6 / lookahead_threads=1 / sliced_threads=0 / nr=0 / decimate=1 / interlaced=0 / bluray_compat=0 / constrained_intra=0 / bframes=3 / b_pyramid=2 / b_adapt=1 / b_bias=0 / direct=1 / weightb=1 / open_gop=0 / weightp=1 / keyint=250 / keyint_min=25 / scenecut=40 / intra_refresh=0 / rc_lookahead=0 / rc=abr / mbtree=0 / bitrate=2800 / ratetol=1.0 / qcomp=0.60 / qpmin=0 / qpmax=69 / qpstep=4 / vbv_maxrate=62500 / vbv_bufsize=78125 / nal_hrd=none / ip_ratio=1.40 / pb_ratio=1.30 / aq=1:1.00
Encoded date : UTC 2017-10-15 14:57:43
Tagged date : UTC 2017-10-15 15:25:31
Color range : Limited
Color primaries : BT.709
Transfer characteristics : BT.709
Matrix coefficients : BT.709

Audio
ID : 2
Format : AAC
Format/Info : Advanced Audio Codec
Format profile : LC
Codec ID : 40
Duration : 21 min 43 s
Bit rate mode : Variable
Bit rate : 160 kb/s
Maximum bit rate : 227 kb/s
Channel(s) : 2 channels
Channel positions : Front: L R
Sampling rate : 48.0 kHz
Frame rate : 46.875 FPS (1024 spf)
Compression mode : Lossy
Stream size : 24.8 MiB (5%)
Encoded date : UTC 2017-10-15 15:25:29
Tagged date : UTC 2017-10-15 15:25:31

Text
ID : 3
Format : Timed Text
Codec ID : tx3g
Duration : 20 min 52 s
Bit rate mode : Variable
Bit rate : 88 b/s
Stream size : 13.4 KiB (0%)
Forced : No
Encoded date : UTC 2017-10-15 15:25:31
Tagged date : UTC 2017-10-15 15:25:31


Screenshots:

BBC - Sex Map of Britain Series 1: Four Pounds for Sex (2017)

BBC - Sex Map of Britain Series 1: Four Pounds for Sex (2017)

BBC - Sex Map of Britain Series 1: Four Pounds for Sex (2017)

BBC - Sex Map of Britain Series 1: Four Pounds for Sex (2017)