Tags
Language
Tags

BBC - The Force: The Story of Scotland's Police (2017)

Posted By:
1080p (FullHD) / HDTV
BBC - The Force: The Story of Scotland's Police (2017)

BBC - The Force: The Story of Scotland's Police (2017)
HDTV | 1920x1080 | .MKV/AVC @ 2634 Kbps | 3x~59min | 3.37 GiB
Audio: English AAC 127 kbps, 2 channels | Subs: English
Genre: Documentary

For 400 years officers of the law have served the people of Scotland. This series tells the long history of keeping Scotland's peace. Combining powerful testimony from retired officers with astonishing archive, as well as contemporary footage of modern policing in action - the series tells the stories of the men and women behind the uniform.

Part 1: The Beat Patrol
Focuses on the rank of constable, a role that dates back 400 years to when James VI decreed there should be two such officers in every parish.

Part 2: The Detectives
A look at the evolution of police detective work, from its early beginnings in the 19th century to landmark cases of the 21st. The testimony is often moving and gives a real insight into what it takes to be a detective. Many recall dealing with the emotional baggage that comes with the job. From crime scenes to unsolved cases, the pain is often etched on their faces as they relive the moments that had the biggest impact on their careers and lives. Some of those moments lie within two of the most famous cases in Scottish police history, the 'World's End Murders' of two 17-year-old girls, Helen Scott and Christine Eadie, in 1977, and the murders of young schoolchildren by Robert Black in the 1980s.

Part 3: Law and Order
1980s to the violent G8 protests in 2005. At times of social unrest, the police often find themselves on the front line of the struggle. This film sees officers dealing with political protest, illegal drugs, mass disorder and gang warfare throughout Scotland's history.

General
Unique ID : 224249001139293792165676368930865084421 (0xA8B4C96089D5A3D359C22598A4C6F805)
Complete name : BBC.The.Fce.The.Story.of.Scotlands.Police.1of3.1080p.mkv
Format : Matroska
Format version : Version 4 / Version 2
File size : 1.14 GiB
Duration : 59 min 1 s
Overall bit rate : 2 764 kb/s

Video
ID : 1
Format : HEVC
Format/Info : High Efficiency Video Coding
Format profile : Main@L4@Main
Codec ID : V_MPEGH/ISO/HEVC
Duration : 59 min 1 s
Bit rate : 2 634 kb/s
Width : 1 920 pixels
Height : 1 080 pixels
Display aspect ratio : 16:9
Frame rate mode : Constant
Frame rate : 25.000 FPS
Color space : YUV
Chroma subsampling : 4:2:0
Bit depth : 8 bits
Bits/(Pixel*Frame) : 0.051
Stream size : 1.09 GiB (95%)
Encoding settings : cpuid=1111039 / frame-threads=3 / numa-pools=12 / wpp / no-pmode / no-pme / no-psnr / no-ssim / log-level=2 / input-csp=1 / input-res=1920x1080 / interlace=0 / total-frames=88525 / level-idc=0 / high-tier=1 / uhd-bd=0 / ref=3 / no-allow-non-conformance / no-repeat-headers / annexb / no-aud / no-hrd / info / hash=0 / no-temporal-layers / no-open-gop / min-keyint=25 / keyint=250 / gop-lookahead=12 / bframes=6 / b-adapt=2 / b-pyramid / bframe-bias=0 / rc-lookahead=20 / lookahead-slices=6 / scenecut=40 / hist-scenecut=0 / radl=0 / no-splice / no-intra-refresh / ctu=64 / min-cu-size=8 / no-rect / no-amp / max-tu-size=32 / tu-inter-depth=1 / tu-intra-depth=1 / limit-tu=0 / rdoq-level=0 / dynamic-rd=0.00 / no-ssim-rd / signhide / no-tskip / nr-intra=0 / nr-inter=0 / no-constrained-intra / strong-intra-smoothing / max-merge=3 / limit-refs=1 / no-limit-modes / me=2 / subme=2 / merange=48 / temporal-mvp / no-frame-dup / hme / Level / merange / L0,L1,L2=16,32,48 / weightp / weightb / no-analyze-src-pics / deblock=0:0 / sao / no-sao-non-deblock / rd=3 / selective-sao=4 / early-skip / rskip / no-fast-intra / no-tskip-fast / no-cu-lossless / b-intra / no-splitrd-skip / rdpenalty=0 / psy-rd=2.00 / psy-rdoq=0.00 / no-rd-refine / no-lossless / cbqpoffs=0 / crqpoffs=0 / rc=crf / crf=21.0 / qcomp=0.60 / qpstep=4 / stats-write=0 / stats-read=0 / ipratio=1.40 / pbratio=1.30 / aq-mode=4 / aq-strength=1.00 / cutree / zone-count=0 / no-strict-cbr / qg-size=32 / no-rc-grain / qpmax=69 / qpmin=0 / no-const-vbv / sar=1 / overscan=0 / videoformat=5 / range=0 / colorprim=1 / transfer=1 / colormatrix=1 / chromaloc=0 / display-window=0 / cll=0,0 / min-luma=0 / max-luma=255 / log2-max-poc-lsb=8 / vui-timing-info / vui-hrd-info / slices=1 / no-opt-qp-pps / no-opt-ref-list-length-pps / no-multi-pass-opt-rps / scenecut-bias=0.05 / hist-threshold=0.03 / no-opt-cu-delta-qp / no-aq-motion / no-hdr10 / no-hdr10-opt / no-dhdr10-opt / no-idr-recovery-sei / analysis-reuse-level=0 / analysis-save-reuse-level=0 / analysis-load-reuse-level=0 / scale-factor=0 / refine-intra=0 / refine-inter=0 / refine-mv=1 / refine-ctu-distortion=0 / no-limit-sao / ctu-info=0 / no-lowpass-dct / refine-analysis-type=0 / copy-pic=1 / max-ausize-factor=1.0 / no-dynamic-refine / no-single-sei / no-hevc-aq / no-svt / no-field / qp-adaptation-range=1.00 / no-scenecut-aware-qpconformance-window-offsets / right=0 / bottom=0 / decoder-max-rate=0
Language : English
Default : Yes
Forced : No
Color range : Limited
Color primaries : BT.709
Transfer characteristics : BT.709
Matrix coefficients : BT.709

Audio
ID : 2
Format : AAC
Format/Info : Advanced Audio Codec
Format profile : LC
Codec ID : A_AAC
Duration : 59 min 0 s
Bit rate : 127 kb/s
Channel(s) : 2 channels
Channel positions : Front: L R
Sampling rate : 48.0 kHz
Frame rate : 46.875 FPS (1024 spf)
Compression mode : Lossy
Delay relative to video : 20 ms
Stream size : 53.6 MiB (5%)
Language : English
Default : Yes
Forced : No

Text
ID : 3
Format : UTF-8
Codec ID : S_TEXT/UTF8
Codec ID/Info : UTF-8 Plain Text
Duration : 58 min 28 s
Bit rate : 106 b/s
Count of elements : 940
Stream size : 45.7 KiB (0%)
Language : English
Default : No
Forced : No


Screenshots:

BBC - The Force: The Story of Scotland's Police (2017)

BBC - The Force: The Story of Scotland's Police (2017)

BBC - The Force: The Story of Scotland's Police (2017)

BBC - The Force: The Story of Scotland's Police (2017)