BBC - The Joy of Winning (2018)

Posted By: notbanned
720p (HD) / HDTV
BBC - The Joy of Winning (2018)

BBC - The Joy of Winning (2018)
HDTV | 1280x720 | .MKV/AVC @ 2039 Kbps | 59 min 24 s | 923 MiB
Audio: English AAC 129 kbps, 2 channels | Subs: English
Genre: Documentary

How to have a happier life and a better world all thanks to maths, in this witty, mind-expanding guide to the science of success with Hannah Fry. Following in the footsteps of BBC Four's award-winning maths films The Joy of Stats and The Joy of Data, this latest gleefully nerdy adventure sees mathematician Dr Hannah Fry unlock the essential strategies you'll need to get what you want - to win - more of the time. From how to bag a bargain dinner to how best to stop the kids arguing on a long car journey, maths can give you a winning strategy. And the same rules apply to the world's biggest problems - whether it's avoiding nuclear annihilation or tackling climate change. Deploying 'The Joys Of…' films' trademark mix of playful animation alongside both oddball demos and contributions from the world's biggest brains, Fry shows how this field of maths - known as game theory - is the essential key to help you get your way. She reveals ways to analyse any situation, and methods of calculating the consequences of getting what you want. Expect tips on taking advantage of what your opponents do, but also pleasing proof that cooperation might get you further than conflict. Fry also hails the 20th-century scientists like John von Neumann and John Nash who worked out the science of success. They may not be household names, but they transformed economics, politics, psychology and evolutionary biology in the process - and their work, Hannah demonstrates, could even be shown to prove the existence and advantage of goodness.

General
Unique ID : 253975904106133201247513516305480995453 (0xBF11FAD9E13C47306C1DB9D2F0ACD27D)
Complete name : BBC.The.Joy.of.Winning.720p.mkv
Format : Matroska
Format version : Version 4 / Version 2
File size : 923 MiB
Duration : 59 min 24 s
Overall bit rate : 2 171 kb/s

Video
ID : 1
Format : AVC
Format/Info : Advanced Video Codec
Format profile : High@L3.1
Format settings, CABAC : Yes
Format settings, ReFrames : 4 frames
Codec ID : V_MPEG4/ISO/AVC
Duration : 59 min 24 s
Bit rate : 2 039 kb/s
Width : 1 280 pixels
Height : 720 pixels
Display aspect ratio : 16:9
Frame rate mode : Constant
Frame rate : 25.000 FPS
Color space : YUV
Chroma subsampling : 4:2:0
Bit depth : 8 bits
Scan type : Progressive
Bits/(Pixel*Frame) : 0.089
Stream size : 867 MiB (94%)
Encoding settings : cabac=1 / ref=4 / deblock=1:0:0 / analyse=0x3:0x113 / me=umh / subme=9 / psy=1 / psy_rd=1.00:0.00 / mixed_ref=1 / me_range=24 / chroma_me=1 / trellis=1 / 8x8dct=1 / cqm=0 / deadzone=21,11 / fast_pskip=0 / chroma_qp_offset=-2 / threads=18 / lookahead_threads=2 / sliced_threads=0 / nr=0 / decimate=1 / interlaced=0 / bluray_compat=0 / constrained_intra=0 / bframes=6 / b_pyramid=2 / b_adapt=2 / b_bias=0 / direct=1 / weightb=1 / open_gop=0 / weightp=2 / keyint=250 / keyint_min=25 / scenecut=40 / intra_refresh=0 / rc_lookahead=40 / rc=crf / mbtree=1 / crf=19.0 / qcomp=0.60 / qpmin=0 / qpmax=69 / qpstep=4 / ip_ratio=1.40 / aq=1:1.00
Language : English
Default : Yes
Forced : No
Color range : Limited
Color primaries : BT.709
Transfer characteristics : BT.709
Matrix coefficients : BT.709

Audio
ID : 2
Format : AAC
Format/Info : Advanced Audio Codec
Format profile : LC
Codec ID : A_AAC
Duration : 59 min 24 s
Bit rate : 129 kb/s
Channel(s) : 2 channels
Channel positions : Front: L R
Sampling rate : 48.0 kHz
Frame rate : 46.875 FPS (1024 spf)
Compression mode : Lossy
Delay relative to video : 9 ms
Stream size : 54.8 MiB (6%)
Language : English
Default : Yes
Forced : No

Text
ID : 3
Format : UTF-8
Codec ID : S_TEXT/UTF8
Codec ID/Info : UTF-8 Plain Text
Duration : 58 min 47 s
Bit rate : 95 b/s
Count of elements : 914
Stream size : 40.9 KiB (0%)
Language : English
Default : No
Forced : No


Screenshots:

BBC - The Joy of Winning (2018)

BBC - The Joy of Winning (2018)

BBC - The Joy of Winning (2018)