Tags
Language
Tags

BBC - The Life of Buddha (2003)

Posted By: notbanned
SD / DVDRip
BBC - The Life of Buddha (2003)

BBC - The Life of Buddha (2003)
DVDRip | 704x384 | .AVI/DivX @ 1760 Kbps | 49 min 56 s | 702 MiB
Audio: English AC3 192 kbps, 2 channels | Subs: English
Genre: Documentary

Life of the Buddha is a major new landmark documentary following Buddha on his journey from the lap of luxury to the verge of starvation and final enlightenment. Shot on location in Nepal and India, Life of the Buddha uses dramatic computer-generated images and recent archaeological discoveries to piece together this remarkable story.

General
Complete name : BBC.The.Life.of.Buddha.avi
Format : AVI
Format/Info : Audio Video Interleave
File size : 702 MiB
Duration : 49 min 56 s
Overall bit rate : 1 964 kb/s

Video
ID : 0
Format : MPEG-4 Visual
Format settings, BVOP : 1
Format settings, QPel : No
Format settings, GMC : No warppoints
Format settings, Matrix : Default (H.263)
Muxing mode : Packed bitstream
Codec ID : DX50
Codec ID/Hint : DivX 5
Duration : 49 min 56 s
Bit rate : 1 760 kb/s
Nominal bit rate : 5 596 kb/s
Width : 704 pixels
Height : 384 pixels
Display aspect ratio : 1.85:1
Frame rate : 29.970 (30000/1001) FPS
Color space : YUV
Chroma subsampling : 4:2:0
Bit depth : 8 bits
Scan type : Progressive
Compression mode : Lossy
Bits/(Pixel*Frame) : 0.217
Stream size : 629 MiB (90%)
Writing library : DivX 5.2.1 (WaffleDay) (UTC 2004-09-08)

Audio
ID : 1
Format : AC-3
Format/Info : Audio Coding 3
Format settings, Endianness : Big
Codec ID : 2000
Duration : 49 min 56 s
Bit rate mode : Constant
Bit rate : 192 kb/s
Channel(s) : 2 channels
Channel positions : Front: L R
Sampling rate : 48.0 kHz
Frame rate : 31.250 FPS (1536 spf)
Bit depth : 16 bits
Compression mode : Lossy
Stream size : 68.6 MiB (10%)
Alignment : Split accross interleaves
Interleave, duration : 33 ms (1.00 video frame)
Interleave, preload duration : 64 ms
Service kind : Complete Main


Screenshots:

BBC - The Life of Buddha (2003)

BBC - The Life of Buddha (2003)

BBC - The Life of Buddha (2003)

BBC - The Life of Buddha (2003)