Tags
Language
Tags

BBC The Sky at Night - The Winter Sky (2009)

Posted By: notbanned
SD / DVDRip
BBC The Sky at Night - The Winter Sky (2009)

BBC The Sky at Night - The Winter Sky (2009)
PDTV | 832x468 | .MKV/AVC @ 1020 Kbps | 28 min 39 s | 235 MiB
Audio: English AAC 125 kbps, 2 channels | Subs: None
Genre: Documentary

Winter is approaching and, with longer nights, it is the perfect time to get outside to enjoy the wonders of the night sky. Sir Patrick Moore is joined by Dr Chris Lintott and Pete Lawrence, plus a host of stargazers searching for the best the winter skies have to offer.

General
Unique ID : 321461359415559522271897684363166818524 (0xF1D734AFB6D384200A215A029F1720DC)
Complete name : BBC.The.Sky.at.Night.2009.The.Winter.Sky.PDTV.mkv
Format : Matroska
Format version : Version 4 / Version 2
File size : 235 MiB
Duration : 28 min 39 s
Overall bit rate : 1 147 kb/s

Video
ID : 1
Format : AVC
Format/Info : Advanced Video Codec
Format profile : Main@L3.1
Format settings, CABAC : Yes
Format settings, ReFrames : 4 frames
Codec ID : V_MPEG4/ISO/AVC
Duration : 28 min 39 s
Bit rate : 1 020 kb/s
Width : 832 pixels
Height : 468 pixels
Display aspect ratio : 16:9
Frame rate mode : Constant
Frame rate : 25.000 FPS
Color space : YUV
Chroma subsampling : 4:2:0
Bit depth : 8 bits
Scan type : Progressive
Bits/(Pixel*Frame) : 0.105
Stream size : 209 MiB (89%)
Encoding settings : cabac=1 / ref=4 / deblock=1:0:0 / analyse=0x1:0x111 / me=umh / subme=9 / psy=1 / psy_rd=1.00:0.00 / mixed_ref=1 / me_range=16 / chroma_me=1 / trellis=1 / 8x8dct=0 / cqm=0 / deadzone=21,11 / fast_pskip=0 / chroma_qp_offset=-2 / threads=15 / lookahead_threads=1 / sliced_threads=0 / nr=0 / decimate=1 / interlaced=0 / bluray_compat=0 / constrained_intra=0 / bframes=6 / b_pyramid=2 / b_adapt=2 / b_bias=0 / direct=1 / weightb=1 / open_gop=0 / weightp=2 / keyint=250 / keyint_min=25 / scenecut=40 / intra_refresh=0 / rc_lookahead=40 / rc=crf / mbtree=1 / crf=20.0 / qcomp=0.60 / qpmin=0 / qpmax=69 / qpstep=4 / ip_ratio=1.40 / aq=1:1.00
Language : English
Default : Yes
Forced : No

Audio
ID : 2
Format : AAC
Format/Info : Advanced Audio Codec
Format profile : LC
Codec ID : A_AAC
Duration : 28 min 39 s
Bit rate : 125 kb/s
Channel(s) : 2 channels
Channel positions : Front: L R
Sampling rate : 48.0 kHz
Frame rate : 46.875 FPS (1024 spf)
Compression mode : Lossy
Delay relative to video : 9 ms
Stream size : 25.6 MiB (11%)
Language : English
Default : Yes
Forced : No


Screenshots:

BBC The Sky at Night - The Winter Sky (2009)

BBC The Sky at Night - The Winter Sky (2009)

BBC The Sky at Night - The Winter Sky (2009)

BBC The Sky at Night - The Winter Sky (2009)