Tags
Language
Tags

BBC The Sky at Night - Exoplanets and Antarctica (2022)

Posted By: notbanned
1080p (FullHD) / HDTV
BBC The Sky at Night - Exoplanets and Antarctica (2022)

BBC The Sky at Night - Exoplanets and Antarctica (2022)
HDTV 1080p | MKV | 1920x1080 | AVC@3298 Kbps | English AAC@132 Kbps | 2 channels | 29 min 6 s | 714 MiB
HDTV 1440p | MKV | 2560x1440 | AVC@2736 Kbps | English AAC@132 Kbps | 2 channels | 29 min 6 s | 597 MiB
Genre: Documentary

In a month when the tally of confirmed exoplanets passed 5,000, it's astonishing to remember that just 30 years ago, the notion of planets outside our own solar system was, well – just a notion. Since the first extrasolar planet was discovered in 1992, a staggering array of other worlds have been identified, including many in solar systems quite unlike our own.

Professor Amaury Triaud (University of Birmingham) studies binary systems - two stars locked in mutual orbit - and the planets that have been found orbiting them. Recently, Professor Triaud was the lead author on a paper describing how we might find many more planets in these solar systems with two suns – places often compared to Star Wars' planet Tatooine.

Most exoplanets have been discovered using the transit method, where a dip in a star's luminance is recorded as a planet is observed 'in transit', ie passing across the star's face. Thousands of transits have been observed using Nasa's Keppler space telescope – the exoplanet discovery equivalent of a fishing trawler, hoovering up its quarry on an industrial scale. But while the transit method is an excellent way of discovering exoplanets, it comes with a serious drawback: the transit must be observed. In other words, the orbit of the planet, its star and the observing telescope must all be aligned in just the right place at just the right time. And in the three-dimensional vastness of space, that comes down to luck.

In binary systems, this eventuality requires even more good fortune. So, Professor Triaud and his team have been using a detection method known as the radial velocity technique. Trickier to pull off, but not reliant on happenstance. The premise of the radial velocity method is that orbiting systems are held together by gravity and will affect each other's orbits. While a planet is held in place by its star's gravitational field, the planet's gravity in turn will also pull at the star, causing its path to deviate. This deviation is tiny, but critically it is measurable. The careful analysis of the degree to which a star 'wobbles' will tell you all about its orbiting planets.

For the first time, Professor Triaud has shown that this effect can be measured in complex binary systems using telescopes on Earth. It's an exciting development. Many more new worlds can be discovered without the need for costly space telescopes and the luck of being aligned 'just so' to catch a transit.

The hunt for exoplanets is a major scientific endeavour, not only because it might provide answers to the question of life emerging in other parts of the universe, but also because it also gives us clues as to how planet formation occurs and solar systems emerge. However, it is a high precision game, and the locations for the specialist kit required are rarely the most hospitable.

Professor Triaud's PhD student Georgina ('George') Dransfield recently travelled to Antarctica to work on upgrading the exoplanet hunting telescope Astep at the French Antarctic base, Concordia. George filmed the trip for us and explained to Maggie (who also has experience building telescopes in extreme locations) what the trip involved. Concordia sits 3,200m above sea level, where the atmosphere is dry and thin, making it as near to having a space telescope on Earth as possible. This, combined with the Antarctic winter giving three months of uninterrupted night sky, means it's a no brainer as a location for a research telescope. Except, of course, its location is one of the most extreme on Earth! George and the team were there to move the telescope to a better, bigger dome, and upgrade its camera to a two-colour receiver rather than the original 'black-and-white' version. George was also responsible for designing and installing more advanced data handling techniques for the image-processing system.

All this would be hard enough at the best of times, but the Antarctic climate makes things a lot more challenging. 'As soon as you step outside, the inside of your nose ices up,' remembers George, 'and you know, it sounds ridiculous, but I just wasn't expecting how cold it would be!'

Back in Birmingham, George is now using the uprated system in her PhD work, and is even nostalgic for Antarctica. 'If you'd asked me at the time if I wanted to go back, I'd have probably said no,' she confides, 'but now, yeah, I'd definitely go back if I had the chance again!' And if she doesn't get that chance, there'll be a permanent reminder of the trip – in the form of a new tattoo!

Also, in an update to last year's programme about Jupiter, Jonny Nichols (University of Leicester) tells us how the mystery of the gas giant's aurora has nearly been solved. 'When I saw the data come in, I nearly fell off my chair,' he tells Maggie. And, following a lockdown boom in telescope sales, viewer Stacey Downton from Longbridge shows us her telescopes and explains her passion for astrophotography.

General
Unique ID : 302758770584338658054627329351391119077 (0xE3C537DD3A6AD3E5FC97D4F4833006E5)
Complete name : BBC.The.Sky.at.Night.2022.Exoplanets.and.Antarctica.1080p.mkv
Format : Matroska
Format version : Version 4 / Version 2
File size : 714 MiB
Duration : 29 min 6 s
Overall bit rate : 3 431 kb/s

Video
ID : 1
Format : AVC
Format/Info : Advanced Video Codec
Format profile : High@L4.1
Format settings, CABAC : Yes
Format settings, ReFrames : 4 frames
Codec ID : V_MPEG4/ISO/AVC
Duration : 29 min 6 s
Bit rate : 3 298 kb/s
Width : 1 920 pixels
Height : 1 080 pixels
Display aspect ratio : 16:9
Frame rate mode : Constant
Frame rate : 25.000 FPS
Color space : YUV
Chroma subsampling : 4:2:0
Bit depth : 8 bits
Scan type : Progressive
Bits/(Pixel*Frame) : 0.064
Stream size : 687 MiB (96%)
Writing library : x264 core 164 r3094 bfc87b7
Encoding settings : cabac=1 / ref=4 / deblock=1:0:0 / analyse=0x3:0x113 / me=umh / subme=9 / psy=1 / psy_rd=1.00:0.00 / mixed_ref=1 / me_range=32 / chroma_me=1 / trellis=1 / 8x8dct=1 / cqm=0 / deadzone=21,11 / fast_pskip=0 / chroma_qp_offset=-2 / threads=18 / lookahead_threads=2 / sliced_threads=0 / nr=0 / decimate=1 / interlaced=0 / bluray_compat=0 / constrained_intra=0 / bframes=6 / b_pyramid=2 / b_adapt=2 / b_bias=0 / direct=1 / weightb=1 / open_gop=0 / weightp=2 / keyint=250 / keyint_min=25 / scenecut=40 / intra_refresh=0 / rc_lookahead=40 / rc=crf / mbtree=1 / crf=21.0 / qcomp=0.60 / qpmin=0 / qpmax=69 / qpstep=4 / ip_ratio=1.40 / aq=2:1.00
Language : English
Default : Yes
Forced : No
Color range : Limited
Color primaries : BT.709
Transfer characteristics : BT.709
Matrix coefficients : BT.709

Audio
ID : 2
Format : AAC
Format/Info : Advanced Audio Codec
Format profile : LC
Codec ID : A_AAC
Duration : 29 min 5 s
Bit rate : 132 kb/s
Channel(s) : 2 channels
Channel positions : Front: L R
Sampling rate : 48.0 kHz
Frame rate : 46.875 FPS (1024 spf)
Compression mode : Lossy
Stream size : 27.1 MiB (4%)
Language : English
Default : Yes
Forced : No

Text
ID : 3
Format : UTF-8
Codec ID : S_TEXT/UTF8
Codec ID/Info : UTF-8 Plain Text
Duration : 28 min 59 s
Bit rate : 126 b/s
Count of elements : 571
Stream size : 26.8 KiB (0%)
Language : English
Default : No
Forced : No


General
Unique ID : 320385295456972268317634107347904097014 (0xF107F6A31959135971D65E97979DEAF6)
Complete name : BBC.The.Sky.at.Night.2022.Exoplanets.and.Antarctica.1440p.mkv
Format : Matroska
Format version : Version 4 / Version 2
File size : 597 MiB
Duration : 29 min 6 s
Overall bit rate : 2 869 kb/s

Video
ID : 1
Format : HEVC
Format/Info : High Efficiency Video Coding
Format profile : Main 10@L5@Main
Codec ID : V_MPEGH/ISO/HEVC
Duration : 29 min 6 s
Bit rate : 2 736 kb/s
Width : 2 560 pixels
Height : 1 440 pixels
Display aspect ratio : 16:9
Frame rate mode : Constant
Frame rate : 25.000 FPS
Color space : YUV
Chroma subsampling : 4:2:0
Bit depth : 10 bits
Bits/(Pixel*Frame) : 0.030
Stream size : 570 MiB (95%)
Writing library : x265 3.5+36-9b59d4554:[Windows][MSVC 1931][64 bit] 10bit
Encoding settings : cpuid=1111039 / frame-threads=3 / numa-pools=12 / wpp / no-pmode / no-pme / no-psnr / no-ssim / log-level=2 / input-csp=1 / input-res=2560x1440 / interlace=0 / total-frames=43650 / level-idc=0 / high-tier=1 / uhd-bd=0 / ref=3 / no-allow-non-conformance / no-repeat-headers / annexb / no-aud / no-eob / no-eos / no-hrd / info / hash=0 / no-temporal-layers / no-open-gop / min-keyint=25 / keyint=250 / gop-lookahead=12 / bframes=6 / b-adapt=2 / b-pyramid / bframe-bias=0 / rc-lookahead=20 / lookahead-slices=8 / scenecut=40 / no-hist-scenecut / radl=0 / no-splice / no-intra-refresh / ctu=64 / min-cu-size=8 / no-rect / no-amp / max-tu-size=32 / tu-inter-depth=1 / tu-intra-depth=1 / limit-tu=0 / rdoq-level=0 / dynamic-rd=0.00 / no-ssim-rd / signhide / no-tskip / nr-intra=0 / nr-inter=0 / no-constrained-intra / strong-intra-smoothing / max-merge=3 / limit-refs=1 / no-limit-modes / me=2 / subme=2 / merange=48 / temporal-mvp / no-frame-dup / hme / Level / merange / L0,L1,L2=16,32,48 / weightp / weightb / no-analyze-src-pics / deblock=0:0 / sao / no-sao-non-deblock / rd=3 / selective-sao=4 / early-skip / rskip / no-fast-intra / no-tskip-fast / no-cu-lossless / b-intra / no-splitrd-skip / rdpenalty=0 / psy-rd=2.00 / psy-rdoq=0.00 / no-rd-refine / no-lossless / cbqpoffs=0 / crqpoffs=0 / rc=crf / crf=21.0 / qcomp=0.60 / qpstep=4 / stats-write=0 / stats-read=0 / ipratio=1.40 / pbratio=1.30 / aq-mode=4 / aq-strength=1.00 / cutree / zone-count=0 / no-strict-cbr / qg-size=32 / no-rc-grain / qpmax=69 / qpmin=0 / no-const-vbv / sar=1 / overscan=0 / videoformat=5 / range=0 / colorprim=1 / transfer=1 / colormatrix=1 / chromaloc=0 / display-window=0 / cll=0,0 / min-luma=0 / max-luma=1023 / log2-max-poc-lsb=8 / vui-timing-info / vui-hrd-info / slices=1 / no-opt-qp-pps / no-opt-ref-list-length-pps / no-multi-pass-opt-rps / scenecut-bias=0.05 / hist-threshold=0.03 / no-opt-cu-delta-qp / no-aq-motion / no-hdr10 / no-hdr10-opt / no-dhdr10-opt / no-idr-recovery-sei / analysis-reuse-level=0 / analysis-save-reuse-level=0 / analysis-load-reuse-level=0 / scale-factor=0 / refine-intra=0 / refine-inter=0 / refine-mv=1 / refine-ctu-distortion=0 / no-limit-sao / ctu-info=0 / no-lowpass-dct / refine-analysis-type=0 / copy-pic=1 / max-ausize-factor=1.0 / no-dynamic-refine / no-single-sei / no-hevc-aq / no-svt / no-field / qp-adaptation-range=1.00 / scenecut-aware-qp=0conformance-window-offsets / right=0 / bottom=0 / decoder-max-rate=0 / no-vbv-live-multi-pass
Language : English
Default : Yes
Forced : No
Color range : Limited
Color primaries : BT.709
Transfer characteristics : BT.709
Matrix coefficients : BT.709

Audio
ID : 2
Format : AAC
Format/Info : Advanced Audio Codec
Format profile : LC
Codec ID : A_AAC
Duration : 29 min 5 s
Bit rate : 132 kb/s
Channel(s) : 2 channels
Channel positions : Front: L R
Sampling rate : 48.0 kHz
Frame rate : 46.875 FPS (1024 spf)
Compression mode : Lossy
Stream size : 27.1 MiB (5%)
Language : English
Default : Yes
Forced : No

Text
ID : 3
Format : UTF-8
Codec ID : S_TEXT/UTF8
Codec ID/Info : UTF-8 Plain Text
Duration : 28 min 59 s
Bit rate : 126 b/s
Count of elements : 571
Stream size : 26.8 KiB (0%)
Language : English
Default : No
Forced : No


Screenshots 1080p:

BBC The Sky at Night - Exoplanets and Antarctica (2022)

BBC The Sky at Night - Exoplanets and Antarctica (2022)

BBC The Sky at Night - Exoplanets and Antarctica (2022)

BBC The Sky at Night - Exoplanets and Antarctica (2022)

Screenshots 1440p:

BBC The Sky at Night - Exoplanets and Antarctica (2022)

BBC The Sky at Night - Exoplanets and Antarctica (2022)

BBC The Sky at Night - Exoplanets and Antarctica (2022)

BBC The Sky at Night - Exoplanets and Antarctica (2022)