Wingnut Films - They Shall not Grow Old (2018)

Posted By: notbanned
720p (HD) / HDTV IMDb
Wingnut Films - They Shall not Grow Old (2018)

Wingnut Films - They Shall not Grow Old (2018)
HDTV | 1280x720 | .MP4/AVC @ 2678 Kbps | 1 h 35 min | 1.89 GiB
Audio: English AAC 160 kbps, 2 channels | Subs: English
Genre: Documentary | History | War

Academy Award winner Peter Jackson's poignant WWI documentary 'They Shall Not Grow Old' to commemorate the centennial of the end of the first World War. The acclaimed documentary is an extraordinary look at the soldiers and events of the Great War, using film footage captured at the time, now presented as the world has never seen. By utilizing state-of-the-art restoration, colorization and 3D technologies, and pulling from 600 hours of BBC archival interviews, Jackson puts forth an intensely gripping, immersive and authentic experience through the eyes and voices of the British soldiers who lived it. Jackson recorded a special introduction to the film offering his perspective on why the film is important for audiences, who have never experienced WWI footage as anything but grainy black & white, and silent. Jackson opens a window to the past in a way that has never been seen or heard before, noting, "Restoration is a humanizing process."

General
Complete name : BBC.They.Shall.Not.Grow.Old.720p.mp4
Format : MPEG-4
Format profile : Base Media
Codec ID : isom (isom)
File size : 1.89 GiB
Duration : 1 h 35 min
Overall bit rate mode : Variable
Overall bit rate : 2 841 kb/s

Video
ID : 1
Format : AVC
Format/Info : Advanced Video Codec
Format profile : High@L4.1
Format settings, CABAC : No
Format settings, ReFrames : 1 frame
Format settings, GOP : M=1, N=12
Codec ID : avc1
Codec ID/Info : Advanced Video Coding
Duration : 1 h 35 min
Bit rate : 2 678 kb/s
Maximum bit rate : 21.0 Mb/s
Width : 1 280 pixels
Height : 720 pixels
Display aspect ratio : 16:9
Frame rate mode : Constant
Frame rate : 25.000 FPS
Color space : YUV
Chroma subsampling : 4:2:0
Bit depth : 8 bits
Scan type : Progressive
Bits/(Pixel*Frame) : 0.116
Stream size : 1.78 GiB (94%)
Encoded date : UTC 2018-11-12 00:12:39
Tagged date : UTC 2018-11-12 02:05:04

Audio
ID : 2
Format : AAC
Format/Info : Advanced Audio Codec
Format profile : LC
Codec ID : 40
Duration : 1 h 35 min
Bit rate mode : Variable
Bit rate : 160 kb/s
Maximum bit rate : 273 kb/s
Channel(s) : 2 channels
Channel positions : Front: L R
Sampling rate : 48.0 kHz
Frame rate : 46.875 FPS (1024 spf)
Compression mode : Lossy
Stream size : 109 MiB (6%)
Language : English
Encoded date : UTC 2018-11-12 02:04:50
Tagged date : UTC 2018-11-12 02:05:04

Text
ID : 3
Format : Timed Text
Codec ID : tx3g
Duration : 1 h 34 min
Bit rate mode : Variable
Bit rate : 255 b/s
Stream size : 177 KiB (0%)
Forced : No
Encoded date : UTC 2018-11-12 02:05:04
Tagged date : UTC 2018-11-12 02:05:04


Screenshots:

Wingnut Films - They Shall not Grow Old (2018)

Wingnut Films - They Shall not Grow Old (2018)

Wingnut Films - They Shall not Grow Old (2018)

Wingnut Films - They Shall not Grow Old (2018)