BBC This World - Escape from Dubai: The Mystery of the Missing Princess (2018)

Posted By: notbanned
720p (HD) / HDTV
BBC This World - Escape from Dubai: The Mystery of the Missing Princess (2018)

BBC This World - Escape from Dubai: The Mystery of the Missing Princess (2018)
HDTV | 1280x720 | .MKV/AVC @ 2209 Kbps | 59 min 10 s | 992 MiB
Audio: English AAC 132 kbps, 2 channels | Subs: English
Genre: Documentary

In February 2018, the 32-year-old daughter of the ruler of Dubai boarded a boat and set sail for India with a plan to start a new life in America. But within days her boat was stormed by Indian commandos - she was captured and presumably returned to Dubai. No one has heard from her since. But Princess Latifa had made a video in case she was caught and entrusted it to a lawyer in America. Days later it was released on YouTube. This programme pieces together Princess Latifa's life and reveals how she had been planning the escape for more than seven years. Far from living the charmed life of a princess, she was watched and restricted by her father, Sheikh Mohammed bin Rashid Al Maktoum. The princess claims she had been imprisoned and tortured for a previous attempt to leave. The programme investigates the mystery of her older sister Shamsa, who disappeared from the streets of Cambridge in 2000 after fleeing the family's British mansion in Surrey. And it asks if the image of Dubai we are sold - of winter sunshine and luxury hotels, is actually hiding a brutal dictatorship of human rights abuses - where surveillance, imprisonment and torture are systematic and where tourists can easily be imprisoned for the slightest infringements of their ultra conservative laws.

General
Unique ID : 302444809117142062189154267845487481604 (0xE388C05E648919AA58F6B579D81FD304)
Complete name : BBC.This.World.2018.Escape.from.Dubai.720p.mkv
Format : Matroska
Format version : Version 4 / Version 2
File size : 992 MiB
Duration : 59 min 10 s
Overall bit rate : 2 344 kb/s

Video
ID : 1
Format : AVC
Format/Info : Advanced Video Codec
Format profile : High@L3.1
Format settings, CABAC : Yes
Format settings, ReFrames : 4 frames
Codec ID : V_MPEG4/ISO/AVC
Duration : 59 min 10 s
Bit rate : 2 209 kb/s
Width : 1 280 pixels
Height : 720 pixels
Display aspect ratio : 16:9
Frame rate mode : Constant
Frame rate : 25.000 FPS
Color space : YUV
Chroma subsampling : 4:2:0
Bit depth : 8 bits
Scan type : Progressive
Bits/(Pixel*Frame) : 0.096
Stream size : 935 MiB (94%)
Encoding settings : cabac=1 / ref=4 / deblock=1:0:0 / analyse=0x3:0x113 / me=umh / subme=9 / psy=1 / psy_rd=1.00:0.00 / mixed_ref=1 / me_range=24 / chroma_me=1 / trellis=1 / 8x8dct=1 / cqm=0 / deadzone=21,11 / fast_pskip=0 / chroma_qp_offset=-2 / threads=18 / lookahead_threads=2 / sliced_threads=0 / nr=0 / decimate=1 / interlaced=0 / bluray_compat=0 / constrained_intra=0 / bframes=6 / b_pyramid=2 / b_adapt=2 / b_bias=0 / direct=1 / weightb=1 / open_gop=0 / weightp=2 / keyint=250 / keyint_min=25 / scenecut=40 / intra_refresh=0 / rc_lookahead=40 / rc=crf / mbtree=1 / crf=19.0 / qcomp=0.60 / qpmin=0 / qpmax=69 / qpstep=4 / ip_ratio=1.40 / aq=1:1.00
Language : English
Default : Yes
Forced : No
Color range : Limited
Color primaries : BT.709
Transfer characteristics : BT.709
Matrix coefficients : BT.709

Audio
ID : 2
Format : AAC
Format/Info : Advanced Audio Codec
Format profile : LC
Codec ID : A_AAC
Duration : 59 min 10 s
Bit rate : 132 kb/s
Channel(s) : 2 channels
Channel positions : Front: L R
Sampling rate : 48.0 kHz
Frame rate : 46.875 FPS (1024 spf)
Compression mode : Lossy
Delay relative to video : 9 ms
Stream size : 56.1 MiB (6%)
Language : English
Default : Yes
Forced : No

Text
ID : 3
Format : UTF-8
Codec ID : S_TEXT/UTF8
Codec ID/Info : UTF-8 Plain Text
Duration : 58 min 34 s
Bit rate : 88 b/s
Count of elements : 888
Stream size : 37.9 KiB (0%)
Language : English
Default : No
Forced : No


Screenshots:

BBC This World - Escape from Dubai: The Mystery of the Missing Princess (2018)

BBC This World - Escape from Dubai: The Mystery of the Missing Princess (2018)

BBC This World - Escape from Dubai: The Mystery of the Missing Princess (2018)

BBC This World - Escape from Dubai: The Mystery of the Missing Princess (2018)