Tomorrow's World - People of Science with Brian Cox (2018)

Posted By: notbanned
720p (HD) / HDTV
Tomorrow's World - People of Science with Brian Cox (2018)

Tomorrow's World - People of Science with Brian Cox (2018)
HDTV | 1280x720 | .MP4/AVC @ 2800 Kbps | 6x~5min | 614 MiB
Audio: English AAC 159 kbps, 2 channels | Subs: English
Genre: Documentary

Professor Brian Cox explores the most inspirational figures in the history of science. These are very short Docu’s.
Part 1: David Attenborough
David Attenborough talks to Brian Cox about his admiration for the achievements of Charles Darwin, and how On the Origin of Species inspires him in his work in the natural world.

Part 2: Uta Frith
The pioneering developmental psychologist Uta Frith discusses Alice Lee, whose work in craniology challenged the idea that women were intellectually inferior because they have smaller brain sizes.

Part 3: Bill Bryson
The writer Bill Bryson talks to Brian Cox about his admiration for the US scientist, author and inventor Benjamin Franklin and his many achievements.

Part 4: Sally Davies
Dame Sally Davies talks to Brian Cox about her interest in antibiotic resistance and admiration of Alexander Fleming and Howard Florey for their development of penicillin.

Part 5: David Spiegelhalter
David Spiegelhalter discusses how the work of amateur mathematician Thomas Bayes and statistician Ronald Fisher helped to shape the current thinking of probability.

Part 6: Julia Higgins
President of the Institute of Physics Professor Julia Higgins explores the life and work of Michael Faraday and how his curiosity and passion for communicating science inspires her.

General
Complete name : BBC.Tomorrows.World.People.of.Science.with.Professor.Brian.Cox.Part.1.mp4
Format : MPEG-4
Format profile : Base Media
Codec ID : isom (isom)
File size : 103 MiB
Duration : 4 min 56 s
Overall bit rate mode : Variable
Overall bit rate : 2 917 kb/s

Video
ID : 1
Format : AVC
Format/Info : Advanced Video Codec
Format profile : High@L4.1
Format settings, CABAC : Yes
Format settings, ReFrames : 4 frames
Codec ID : avc1
Codec ID/Info : Advanced Video Coding
Duration : 4 min 56 s
Bit rate : 2 800 kb/s
Maximum bit rate : 11.3 Mb/s
Width : 1 280 pixels
Height : 720 pixels
Display aspect ratio : 16:9
Frame rate mode : Constant
Frame rate : 25.000 FPS
Color space : YUV
Chroma subsampling : 4:2:0
Bit depth : 8 bits
Scan type : Progressive
Bits/(Pixel*Frame) : 0.122
Stream size : 97.2 MiB (94%)
Writing library : x264 core 130 r2273 b3065e6
Encoding settings : cabac=1 / ref=1 / deblock=1:0:0 / analyse=0x3:0x113 / me=hex / subme=2 / psy=1 / psy_rd=1.00:0.00 / mixed_ref=0 / me_range=16 / chroma_me=1 / trellis=0 / 8x8dct=1 / cqm=0 / deadzone=21,11 / fast_pskip=1 / chroma_qp_offset=0 / threads=6 / lookahead_threads=2 / sliced_threads=0 / nr=0 / decimate=1 / interlaced=0 / bluray_compat=0 / constrained_intra=0 / bframes=3 / b_pyramid=2 / b_adapt=1 / b_bias=0 / direct=1 / weightb=1 / open_gop=0 / weightp=1 / keyint=250 / keyint_min=25 / scenecut=40 / intra_refresh=0 / rc_lookahead=10 / rc=abr / mbtree=1 / bitrate=2800 / ratetol=1.0 / qcomp=0.60 / qpmin=0 / qpmax=69 / qpstep=4 / vbv_maxrate=62500 / vbv_bufsize=78125 / nal_hrd=none / ip_ratio=1.40 / aq=1:1.00
Encoded date : UTC 2018-01-14 13:59:48
Tagged date : UTC 2018-01-14 14:30:52
Color range : Limited
Color primaries : BT.709
Transfer characteristics : BT.709
Matrix coefficients : BT.709

Audio
ID : 2
Format : AAC
Format/Info : Advanced Audio Codec
Format profile : LC
Codec ID : 40
Duration : 4 min 56 s
Bit rate mode : Variable
Bit rate : 159 kb/s
Maximum bit rate : 261 kb/s
Channel(s) : 2 channels
Channel positions : Front: L R
Sampling rate : 48.0 kHz
Frame rate : 46.875 FPS (1024 spf)
Compression mode : Lossy
Stream size : 5.60 MiB (5%)
Encoded date : UTC 2018-01-14 14:30:52
Tagged date : UTC 2018-01-14 14:30:52

Text
ID : 3
Format : Timed Text
Codec ID : tx3g
Duration : 4 min 40 s
Bit rate mode : Variable
Bit rate : 223 b/s
Stream size : 7.62 KiB (0%)
Forced : No
Encoded date : UTC 2018-01-14 14:30:52
Tagged date : UTC 2018-01-14 14:30:52


Screenshots:

Tomorrow's World - People of Science with Brian Cox (2018)

Tomorrow's World - People of Science with Brian Cox (2018)

Tomorrow's World - People of Science with Brian Cox (2018)

Tomorrow's World - People of Science with Brian Cox (2018)