BBC - Turtle Eagle Cheetah: A Slow Odyssey (2017)

Posted By: notbanned
720p (HD) / HDTV
BBC - Turtle Eagle Cheetah: A Slow Odyssey (2017)

BBC - Turtle Eagle Cheetah: A Slow Odyssey (2017)
HDTV | 1280x720 | .MKV/AVC @ 1900 Kbps | 1 h 26 min | 1.25 GiB
Audio: English AAC 153 kbps, 2 channels | Subs: English
Genre: Documentary

Riding onboard with a cheetah, a green turtle and a white-tailed sea eagle as they show us around their respective homes. With natural sounds and elegant embedded graphics delivering information, this is an immersive journey into their world like no other. Each section rides onboard with one of the animals as it shows us around its world. Revealing how they go through their daily routines, journey across different parts of their homes and introduce us to the other animals they share them with, in this extraordinary immersive show. A trio of cheetahs hunting on the Namibian bushveld, a green turtle cruising the reefs of Indonesia and a white-tailed sea eagle as it soars above the west coast of Scotland. All the animals are part of ongoing scientific studies or research projects, they are habituated or trained to carry small, lightweight cameras capable of capturing images in high definition. With often bespoke technology developed and pioneered by research scientists and the teams from Blue Planet II and forthcoming series Animals With Cameras. This is the core of this immersive BBC Four series that reveals the natural world through the perspective of its subjects, and has afforded the scientific community an even deeper understanding of their subjects.

General
Unique ID : 214001184630837242902848863958955640786 (0xA0FF21039EB985AFBE74B4EC82C6C7D2)
Complete name : BBC.Turtle.Eagle.Cheetah.A.Slow.Odyssey.720p.mkv
Format : Matroska
Format version : Version 4 / Version 2
File size : 1.25 GiB
Duration : 1 h 26 min
Overall bit rate : 2 056 kb/s

Video
ID : 1
Format : HEVC
Format/Info : High Efficiency Video Coding
Format profile : Main@L3.1@Main
Codec ID : V_MPEGH/ISO/HEVC
Duration : 1 h 26 min
Bit rate : 1 900 kb/s
Width : 1 280 pixels
Height : 720 pixels
Display aspect ratio : 16:9
Frame rate mode : Constant
Frame rate : 25.000 FPS
Color space : YUV
Chroma subsampling : 4:2:0
Bit depth : 8 bits
Bits/(Pixel*Frame) : 0.082
Stream size : 1.15 GiB (92%)
Encoding settings : cpuid=1310975 / frame-threads=1 / numa-pools=2 / wpp / no-pmode / no-pme / no-psnr / no-ssim / log-level=2 / input-csp=1 / input-res=1280x720 / interlace=0 / total-frames=130174 / level-idc=0 / high-tier=1 / uhd-bd=0 / ref=3 / no-allow-non-conformance / no-repeat-headers / annexb / no-aud / no-hrd / info / hash=0 / no-temporal-layers / no-open-gop / min-keyint=25 / keyint=250 / gop-lookahead=0 / bframes=5 / b-adapt=2 / b-pyramid / bframe-bias=0 / rc-lookahead=20 / lookahead-slices=4 / scenecut=40 / radl=0 / no-intra-refresh / ctu=64 / min-cu-size=8 / no-rect / no-amp / max-tu-size=32 / tu-inter-depth=1 / tu-intra-depth=1 / limit-tu=0 / rdoq-level=0 / dynamic-rd=0.00 / no-ssim-rd / signhide / no-tskip / nr-intra=0 / nr-inter=0 / no-constrained-intra / strong-intra-smoothing / max-merge=2 / limit-refs=3 / no-limit-modes / me=1 / subme=2 / merange=57 / temporal-mvp / weightp / weightb / no-analyze-src-pics / deblock=0:0 / sao / no-sao-non-deblock / rd=3 / no-early-skip / rskip / no-fast-intra / no-tskip-fast / no-cu-lossless / no-b-intra / no-splitrd-skip / rdpenalty=0 / psy-rd=2.00 / psy-rdoq=0.00 / no-rd-refine / no-lossless / cbqpoffs=0 / crqpoffs=0 / rc=crf / crf=23.0 / qcomp=0.60 / qpstep=4 / stats-write=0 / stats-read=0 / ipratio=1.40 / pbratio=1.30 / aq-mode=1 / aq-strength=1.00 / cutree / zone-count=0 / no-strict-cbr / qg-size=32 / no-rc-grain / qpmax=69 / qpmin=0 / no-const-vbv / sar=0 / overscan=0 / videoformat=5 / range=0 / colorprim=1 / transfer=1 / colormatrix=1 / chromaloc=0 / display-window=0 / max-cll=0,0 / min-luma=0 / max-luma=255 / log2-max-poc-lsb=8 / vui-timing-info / vui-hrd-info / slices=1 / no-opt-qp-pps / no-opt-ref-list-length-pps / no-multi-pass-opt-rps / scenecut-bias=0.05 / no-opt-cu-delta-qp / no-aq-motion / no-hdr / no-hdr-opt / no-dhdr10-opt / analysis-save=(null) / analysis-load=(null) / analysis-reuse-level=5 / scale-factor=0 / refine-intra=0 / refine-inter=0 / refine-mv=0 / no-limit-sao / ctu-info=0 / no-lowpass-dct / refine-mv-type=0 / copy-pic=1
Language : English
Default : Yes
Forced : No
Color range : Limited
Color primaries : BT.709
Transfer characteristics : BT.709
Matrix coefficients : BT.709

Audio
ID : 2
Format : AAC
Format/Info : Advanced Audio Codec
Format profile : LC
Codec ID : A_AAC
Duration : 1 h 26 min
Bit rate : 153 kb/s
Channel(s) : 2 channels
Channel positions : Front: L R
Sampling rate : 48.0 kHz
Frame rate : 46.875 FPS (1024 spf)
Compression mode : Lossy
Delay relative to video : 9 ms
Stream size : 95.2 MiB (7%)
Language : English
Default : Yes
Forced : No

Text
ID : 3
Format : UTF-8
Codec ID : S_TEXT/UTF8
Codec ID/Info : UTF-8 Plain Text
Duration : 1 h 14 min
Bit rate : 0 b/s
Count of elements : 26
Stream size : 306 Bytes (0%)
Language : English
Default : No
Forced : No


Screenshots:

BBC - Turtle Eagle Cheetah: A Slow Odyssey (2017)

BBC - Turtle Eagle Cheetah: A Slow Odyssey (2017)

BBC - Turtle Eagle Cheetah: A Slow Odyssey (2017)

BBC - Turtle Eagle Cheetah: A Slow Odyssey (2017)