Tags
Language
Tags

BBC - Victoria Wood: The Secret List (2020)

Posted By: notbanned
1080p (FullHD) / HDTV IMDb
BBC - Victoria Wood: The Secret List (2020)

BBC - Victoria Wood: The Secret List (2020)
HDTV | 1920x1080 | .MKV/AVC @ 1855 Kbps | 1 h 58 min | 1.64 GiB
Audio: English AAC 125 kbps, 2 channels | Subs: English
Genre: Documentary

Features sketches handpicked by Victoria Wood from her first solo series, As Seen on TV. With insight from friends and fans as well as rare and unseen footage.

Chapter 1:
Back in 2009, Victoria wrote a list of her favourite moments from her seminal 80s series, intending to use it as a compilation show of self-selected best bits. The list remained locked away in her personal office until now. It features familiar favourites and often overlooked gems, but as these two programmes explore, the chosen sketches serve as a prediction of what was to come in an unparalleled career that crossed just about every genre of stage and screen.

This first programme includes contributions from Russell T Davies, Ken Loach and playwright Winsome Pinnock, who dissect Victoria's groundbreaking early work, why it is still regarded as a watershed moment in British television and the impact it has had on writers since. Meanwhile, Jane Wymark and Joan Armatrading provide an insight into the private side of their friend.

Rare and unseen material from Victoria's personal collection, including an early university project, rehearsal tapes, notebooks and photos, completes this examination into the work of one of Britain's most prolific artists.

Chapter 2:
An opportunity to see again sketches handpicked by Victoria Wood exclusively from her seminal sketch show As Seen on TV. The list of her favourite sketches was never aired or mentioned, instead sitting among her personal papers, which after her death in 2016 were boxed up and archived.

This tribute continues to unveil Victoria's favourite moments and is chock-full of indelible sketches, including Shoe Shop, Two Soups and Acorn Antiques, plus matchless comic big belters At the Chippy and, of course, The Ballad of Barry and Freda aka Let's Do It.

Acclaimed writers Abby Morgan and Winsome Pinnock discuss why Victoria's comedy subverted outdated preconceptions about women, ageing and other 'unmentionables'. Ken Loach and Russell T Davies dissect Victoria's unrivalled use of language. Meanwhile, superfans celebrate a body of work that continues to resonate and inspire.

General
Unique ID : 82131107083929158802459743896564746386 (0x3DC9E037B24ED50658F02DD0616D4892)
Complete name : BBC.Victoria.Wood.The.Sct.List.1080p.mkv
Format : Matroska
Format version : Version 4 / Version 2
File size : 1.64 GiB
Duration : 1 h 58 min
Overall bit rate : 1 983 kb/s

Video
ID : 1
Format : HEVC
Format/Info : High Efficiency Video Coding
Format profile : Main@L4@Main
Codec ID : V_MPEGH/ISO/HEVC
Duration : 1 h 58 min
Bit rate : 1 855 kb/s
Width : 1 920 pixels
Height : 1 080 pixels
Display aspect ratio : 16:9
Frame rate mode : Constant
Frame rate : 25.000 FPS
Color space : YUV
Chroma subsampling : 4:2:0
Bit depth : 8 bits
Bits/(Pixel*Frame) : 0.036
Stream size : 1.53 GiB (94%)
Encoding settings : cpuid=1111039 / frame-threads=3 / numa-pools=12 / wpp / no-pmode / no-pme / no-psnr / no-ssim / log-level=2 / input-csp=1 / input-res=1920x1080 / interlace=0 / total-frames=88875 / level-idc=0 / high-tier=1 / uhd-bd=0 / ref=3 / no-allow-non-conformance / no-repeat-headers / annexb / no-aud / no-eob / no-eos / no-hrd / info / hash=0 / no-temporal-layers / no-open-gop / min-keyint=25 / keyint=250 / gop-lookahead=12 / bframes=6 / b-adapt=2 / b-pyramid / bframe-bias=0 / rc-lookahead=20 / lookahead-slices=6 / scenecut=40 / hist-scenecut=0 / radl=0 / no-splice / no-intra-refresh / ctu=64 / min-cu-size=8 / no-rect / no-amp / max-tu-size=32 / tu-inter-depth=1 / tu-intra-depth=1 / limit-tu=0 / rdoq-level=0 / dynamic-rd=0.00 / no-ssim-rd / signhide / no-tskip / nr-intra=0 / nr-inter=0 / no-constrained-intra / strong-intra-smoothing / max-merge=3 / limit-refs=1 / no-limit-modes / me=2 / subme=2 / merange=48 / temporal-mvp / no-frame-dup / hme / Level / merange / L0,L1,L2=16,32,48 / weightp / weightb / no-analyze-src-pics / deblock=0:0 / sao / no-sao-non-deblock / rd=3 / selective-sao=4 / early-skip / rskip / no-fast-intra / no-tskip-fast / no-cu-lossless / b-intra / no-splitrd-skip / rdpenalty=0 / psy-rd=2.00 / psy-rdoq=0.00 / no-rd-refine / no-lossless / cbqpoffs=0 / crqpoffs=0 / rc=crf / crf=23.0 / qcomp=0.60 / qpstep=4 / stats-write=0 / stats-read=0 / ipratio=1.40 / pbratio=1.30 / aq-mode=4 / aq-strength=1.00 / cutree / zone-count=0 / no-strict-cbr / qg-size=32 / no-rc-grain / qpmax=69 / qpmin=0 / no-const-vbv / sar=1 / overscan=0 / videoformat=5 / range=0 / colorprim=1 / transfer=1 / colormatrix=1 / chromaloc=0 / display-window=0 / cll=0,0 / min-luma=0 / max-luma=255 / log2-max-poc-lsb=8 / vui-timing-info / vui-hrd-info / slices=1 / no-opt-qp-pps / no-opt-ref-list-length-pps / no-multi-pass-opt-rps / scenecut-bias=0.05 / hist-threshold=0.03 / no-opt-cu-delta-qp / no-aq-motion / no-hdr10 / no-hdr10-opt / no-dhdr10-opt / no-idr-recovery-sei / analysis-reuse-level=0 / analysis-save-reuse-level=0 / analysis-load-reuse-level=0 / scale-factor=0 / refine-intra=0 / refine-inter=0 / refine-mv=1 / refine-ctu-distortion=0 / no-limit-sao / ctu-info=0 / no-lowpass-dct / refine-analysis-type=0 / copy-pic=1 / max-ausize-factor=1.0 / no-dynamic-refine / no-single-sei / no-hevc-aq / no-svt / no-field / qp-adaptation-range=1.00 / scenecut-aware-qp=0conformance-window-offsets / right=0 / bottom=0 / decoder-max-rate=0 / no-vbv-live-multi-pass
Language : English
Default : Yes
Forced : No
Color range : Limited
Color primaries : BT.709
Transfer characteristics : BT.709
Matrix coefficients : BT.709

Audio
ID : 2
Format : AAC
Format/Info : Advanced Audio Codec
Format profile : LC
Codec ID : A_AAC
Duration : 1 h 58 min
Bit rate : 125 kb/s
Channel(s) : 2 channels
Channel positions : Front: L R
Sampling rate : 48.0 kHz
Frame rate : 46.875 FPS (1024 spf)
Compression mode : Lossy
Stream size : 106 MiB (6%)
Language : English
Default : Yes
Forced : No

Text
ID : 3
Format : UTF-8
Codec ID : S_TEXT/UTF8
Codec ID/Info : UTF-8 Plain Text
Duration : 1 h 57 min
Bit rate : 105 b/s
Count of elements : 2337
Stream size : 91.0 KiB (0%)
Language : English
Default : No
Forced : No

Menu
00:00:00.000 : Part 1
00:59:15.000 : Part 2


Screenshots:

BBC - Victoria Wood: The Secret List (2020)

BBC - Victoria Wood: The Secret List (2020)

BBC - Victoria Wood: The Secret List (2020)