Tags
Language
Tags

BBC - Visions of the Valleys (2015)

Posted By: notbanned
1080p (FullHD) / HDTV
BBC - Visions of the Valleys (2015)

BBC - Visions of the Valleys (2015)
HDTV | 1920x1080 | .MKV/AVC @ 3904 Kbps | 58 min 30 s | 1.65 GiB
Audio: English AAC 126 kbps, 2 channels | Subs: English
Genre: Documentary

Kim Howells celebrates 250 years of art in the Valleys, looking at how the place became a magnet for artists drawn by its natural splendour and the spectacle of the industries that grew up there. Former MP and Labour arts minister Kim Howells looks at how the south Wales valleys have been portrayed by artists from the end of the 18th century to the present day. He begins with JMW Turner who visited the Vale of Neath in the 1790s to paint the spectacular waterfalls, but soon discovers that it was the drama of industry that attracted the next generation of painters. By the 20th century artists became more concerned with social issues, showing the despair brought on by the Great Depression. But after the Second World War the mood changed and painters reflected the post-war optimism. Finally, Kim looks at the current generation of artists, including Valerie Ganz and David Carpanini, who portray the after-effects of industry and the natural beauty that's returned to the Valleys.

General
Unique ID : 227980500042722253625366810867894350462 (0xAB83727A2EDC8BB6911830DE49DC727E)
Complete name : BBC.Visions.of.the.Valleys.1080p.mkv
Format : Matroska
Format version : Version 4 / Version 2
File size : 1.65 GiB
Duration : 58 min 30 s
Overall bit rate : 4 033 kb/s

Video
ID : 1
Format : AVC
Format/Info : Advanced Video Codec
Format profile : High@L4.1
Format settings, CABAC : Yes
Format settings, ReFrames : 4 frames
Codec ID : V_MPEG4/ISO/AVC
Duration : 58 min 30 s
Bit rate : 3 904 kb/s
Width : 1 920 pixels
Height : 1 080 pixels
Display aspect ratio : 16:9
Frame rate mode : Constant
Frame rate : 25.000 FPS
Color space : YUV
Chroma subsampling : 4:2:0
Bit depth : 8 bits
Scan type : Progressive
Bits/(Pixel*Frame) : 0.075
Stream size : 1.60 GiB (97%)
Encoding settings : cabac=1 / ref=4 / deblock=1:0:0 / analyse=0x3:0x113 / me=umh / subme=9 / psy=1 / psy_rd=1.00:0.00 / mixed_ref=1 / me_range=32 / chroma_me=1 / trellis=1 / 8x8dct=1 / cqm=0 / deadzone=21,11 / fast_pskip=0 / chroma_qp_offset=-2 / threads=3 / lookahead_threads=1 / sliced_threads=0 / nr=0 / decimate=1 / interlaced=0 / bluray_compat=0 / constrained_intra=0 / bframes=3 / b_pyramid=2 / b_adapt=1 / b_bias=0 / direct=1 / weightb=1 / open_gop=0 / weightp=2 / keyint=250 / keyint_min=25 / scenecut=40 / intra_refresh=0 / rc_lookahead=40 / rc=crf / mbtree=1 / crf=21.0 / qcomp=0.60 / qpmin=0 / qpmax=69 / qpstep=4 / ip_ratio=1.40 / aq=1:1.00
Language : English
Default : Yes
Forced : No

Audio
ID : 2
Format : AAC
Format/Info : Advanced Audio Codec
Format profile : LC
Codec ID : A_AAC
Duration : 58 min 30 s
Bit rate : 126 kb/s
Channel(s) : 2 channels
Channel positions : Front: L R
Sampling rate : 48.0 kHz
Frame rate : 46.875 FPS (1024 spf)
Compression mode : Lossy
Delay relative to video : 9 ms
Stream size : 52.8 MiB (3%)
Language : English
Default : Yes
Forced : No

Text
ID : 3
Format : UTF-8
Codec ID : S_TEXT/UTF8
Codec ID/Info : UTF-8 Plain Text
Duration : 57 min 46 s
Bit rate : 99 b/s
Count of elements : 975
Stream size : 42.2 KiB (0%)
Language : English
Default : No
Forced : No


Screenshots:

BBC - Visions of the Valleys (2015)

BBC - Visions of the Valleys (2015)

BBC - Visions of the Valleys (2015)

BBC - Visions of the Valleys (2015)