Tags
Language
Tags
February 2024
Su Mo Tu We Th Fr Sa
28 29 30 31 1 2 3
4 5 6 7 8 9 10
11 12 13 14 15 16 17
18 19 20 21 22 23 24
25 26 27 28 29 1 2
Attention❗ To save your time, in order to download anything on this site, you must be registered 👉 HERE. If you do not have a registration yet, it is better to do it right away. ✌

( • )( • ) ( ͡⚆ ͜ʖ ͡⚆ ) (‿ˠ‿)
SpicyMags.xyz

BIKE - Career Courier (2011)

Posted By: notbanned
BIKE - Career Courier (2011)

BIKE - Career Courier (2011)
PDTV | 832x468 | .MKV/AVC @ 1303 Kbps | 1h 24min | 830 MiB
Audio: English AAC 64 kbps, 2 channels | Subs: None
Genre: Documentary

Whether you are a bicycle messenger for a day or for 20 years, it's a dangerous and physically demanding job. But it is also a lot of fun. So much fun, in fact, that a few bicycle messengers start out on the job thinking that they will just messenger for a summer or two, and then find themselves still doing it 20 years later. Veteran messengers from New York, Portland, San Francisco, St. Louis and San Diego describe what they love about the job as well as the challenges that come with being a messenger for over a decade. Find out what it is like to make a career of being a bicycle courier.


General
Unique ID : 247396314325578674719836042263097264979 (0xBA1ECC0779B98B3C83CF789C0A3C4B53)
Complete name : BIKE.Career.Courier.PDTV.mkv
Format : Matroska
Format version : Version 4 / Version 2
File size : 830 MiB
Duration : 1 h 24 min
Overall bit rate : 1 369 kb/s

Video
ID : 1
Format : AVC
Format/Info : Advanced Video Codec
Format profile : Main@L3.1
Format settings, CABAC : Yes
Format settings, ReFrames : 4 frames
Codec ID : V_MPEG4/ISO/AVC
Duration : 1 h 24 min
Bit rate : 1 303 kb/s
Width : 832 pixels
Height : 468 pixels
Display aspect ratio : 16:9
Frame rate mode : Constant
Frame rate : 25.000 FPS
Color space : YUV
Chroma subsampling : 4:2:0
Bit depth : 8 bits
Scan type : Progressive
Bits/(Pixel*Frame) : 0.134
Stream size : 790 MiB (95%)
Encoding settings : cabac=1 / ref=4 / deblock=1:0:0 / analyse=0x1:0x111 / me=umh / subme=9 / psy=1 / psy_rd=1.00:0.00 / mixed_ref=1 / me_range=16 / chroma_me=1 / trellis=1 / 8x8dct=0 / cqm=0 / deadzone=21,11 / fast_pskip=0 / chroma_qp_offset=-2 / threads=3 / lookahead_threads=1 / sliced_threads=0 / nr=0 / decimate=1 / interlaced=0 / bluray_compat=0 / constrained_intra=0 / bframes=6 / b_pyramid=2 / b_adapt=2 / b_bias=0 / direct=1 / weightb=1 / open_gop=0 / weightp=2 / keyint=250 / keyint_min=25 / scenecut=40 / intra_refresh=0 / rc_lookahead=40 / rc=crf / mbtree=1 / crf=20.0 / qcomp=0.60 / qpmin=0 / qpmax=69 / qpstep=4 / ip_ratio=1.40 / aq=1:1.00
Language : English
Default : Yes
Forced : No

Audio
ID : 2
Format : AAC
Format/Info : Advanced Audio Codec
Format profile : HE-AAC / LC
Codec ID : A_AAC
Duration : 1 h 24 min
Bit rate : 64.0 kb/s
Channel(s) : 2 channels
Channel positions : Front: L R
Sampling rate : 48.0 kHz / 24.0 kHz
Frame rate : 23.438 FPS (1024 spf)
Compression mode : Lossy
Delay relative to video : 31 ms
Stream size : 38.8 MiB (5%)
Language : English
Default : Yes
Forced : No


Screenshots:

BIKE - Career Courier (2011)

BIKE - Career Courier (2011)

BIKE - Career Courier (2011)

BIKE - Career Courier (2011)