Bachelorette (2012)

Posted By: NaVi7
Bachelorette (2012)

Bachelorette (2012)
DVDRip | AVI / XVID, 1884 Kbps | 640x272 | 1h 23mn | 1.37 GB | Francais: AC3, 448 Kbps (6 ch)
DVDRip | AVI / XVID, 1039 Kbps | 640x272 | 1h 23mn | 700 MB | Francais: MP3, 128 Kbps (2 ch)
Genre: Comédie | Romance

Regan, Gena et Katie sont inséparables depuis le lycée. Très cyniques, elles sont stupéfaites d'apprendre que leur amie Becky, adorable mais rondouillette, est la première d'entre elles à se marier ! Alors que Gena et Katie sont toujours célibataires, Regan harcèle Frank, avec qui elle sort depuis quatre ans, pour qu'il la demande en mariage. Lorsque Becky demande à Regan, particulièrement névrosée, de l'aider à préparer la cérémonie et d'être sa demoiselle d'honneur, celle-ci est furieuse. Six mois plus tard, la veille du mariage, Regan, très remontée, tyrannise le personnel et les invités, tandis que Katie et Gena s'apprêtent à faire la fête…

imdb

General
Complete name : Bachelorette.2012.TRUEFRENCH.DVDRip.XviD.AC3-BLOODYMARY.avi
Format : AVI
Format/Info : Audio Video Interleave
File size : 1.37 GiB
Duration : 1h 23mn
Overall bit rate : 2 340 Kbps
Writing application : VirtualDubMod 1.5.10.2 (build 2542/release)
Writing library : VirtualDubMod build 2542/release

Video
ID : 0
Format : MPEG-4 Visual
Format profile : Advanced Simple@L5
Format settings, BVOP : 1
Format settings, QPel : No
Format settings, GMC : No warppoints
Format settings, Matrix : Default (H.263)
Muxing mode : Packed bitstream
Codec ID : XVID
Codec ID/Hint : XviD
Duration : 1h 23mn
Bit rate : 1 884 Kbps
Width : 640 pixels
Height : 272 pixels
Display aspect ratio : 2.35:1
Frame rate : 25.000 fps
Color space : YUV
Chroma subsampling : 4:2:0
Bit depth : 8 bits
Scan type : Progressive
Compression mode : Lossy
Bits/(Pixel*Frame) : 0.433
Stream size : 1.10 GiB (81%)
Writing library : XviD 62

Audio
ID : 1
Format : AC-3
Format/Info : Audio Coding 3
Mode extension : CM (complete main)
Format settings, Endianness : Big
Codec ID : 2000
Duration : 1h 23mn
Bit rate mode : Constant
Bit rate : 448 Kbps
Channel(s) : 6 channels
Channel positions : Front: L C R, Side: L R, LFE
Sampling rate : 48.0 KHz
Bit depth : 16 bits
Compression mode : Lossy
Stream size : 268 MiB (19%)
Alignment : Split accross interleaves
Interleave, duration : 64 ms (1.60 video frames)
Interleave, preload duration : 500 ms

General
Complete name : Bachelorette.2012.TRUEFRENCH.DVDRip.XviD-BLOODYMARY.avi
Format : AVI
Format/Info : Audio Video Interleave
File size : 700 MiB
Duration : 1h 23mn
Overall bit rate : 1 172 Kbps
Writing application : MEncoder SVN-r22963
Writing library : MPlayer

Video
ID : 0
Format : MPEG-4 Visual
Format profile : Simple@L3
Format settings, BVOP : No
Format settings, QPel : No
Format settings, GMC : No warppoints
Format settings, Matrix : Default (H.263)
Codec ID : XVID
Codec ID/Hint : XviD
Duration : 1h 23mn
Bit rate : 1 039 Kbps
Width : 640 pixels
Height : 272 pixels
Display aspect ratio : 2.35:1
Frame rate : 25.000 fps
Color space : YUV
Chroma subsampling : 4:2:0
Bit depth : 8 bits
Scan type : Progressive
Compression mode : Lossy
Bits/(Pixel*Frame) : 0.239
Stream size : 621 MiB (89%)
Writing library : XviD 1.1.2 (UTC 2006-11-01)

Audio
ID : 1
Format : MPEG Audio
Format version : Version 1
Format profile : Layer 3
Mode : Joint stereo
Mode extension : MS Stereo
Codec ID : 55
Codec ID/Hint : MP3
Duration : 1h 23mn
Bit rate mode : Constant
Bit rate : 128 Kbps
Channel(s) : 2 channels
Sampling rate : 48.0 KHz
Compression mode : Lossy
Stream size : 76.5 MiB (11%)
Alignment : Split accross interleaves
Interleave, duration : 500 ms (12.50 video frames)
Interleave, preload duration : 500 ms
Writing library : LAME3.98


Les captures d'ecran - DVDRip 1.37 GB:

Bachelorette (2012)

Bachelorette (2012)

Bachelorette (2012)


Les captures d'ecran - DVDRip 700 MB:

Bachelorette (2012)

Bachelorette (2012)

Bachelorette (2012)


Bienvenue sur mon blog!

Abonnez-vous a ma newsletter!

Pas plus de miroirs!

Si vous voulez le telecharger, mais j'ai decouvert que les liens sont morts, il suffit de laisser un commentaire ou me PM!
Download Links:
Uploaded | Rapidgator - DVDRip 1.37 GB
Uploaded | Rapidgator - DVDRip 700 MB
Liens vers RapidGator et Uploaded sont dans le fichier html. Telechargez le fichier et l'ouvrir dans votre navigateur.