Tags
Language
Tags

Back to Natural: A Documentary Film (2019)

Posted By: notbanned
720p (HD) / WEB-DL IMDb
Back to Natural: A Documentary Film (2019)

Back to Natural: A Documentary Film (2019)
WEB-DL | 1280x720 | .MKV/AVC @ 4597 Kbps | 1 h 5 min | 2.20 GiB
Audio: English EAC3 224 kbps, 2 channels | Subs: English
Genre: Documentary

Back to Natural: A Documentary Film is a groundbreaking 75-minute documentary film that takes a shocking and emotional look at the intersection of hair, politics, and identity in Black communities. This documentary is a powerful, thought provoking, call for healing that takes a grass roots approach to exploring the globalized policing of natural black hair. Join us on this journey of discovery and enlightenment while celebrating our history and natural styles that are taking the world by storm.

General
Unique ID : 29859947006239139204911997667379963529 (0x1676D10D33FDD6076818EED4ABBAE689)
Complete name : Back.to.Natural.A.Documentary.Film.2019.720p.mkv
Format : Matroska
Format version : Version 4 / Version 2
File size : 2.20 GiB
Duration : 1 h 5 min
Overall bit rate : 4 823 kb/s

Video
ID : 1
Format : AVC
Format/Info : Advanced Video Codec
Format profile : High@L3.1
Format settings, CABAC : Yes
Format settings, ReFrames : 4 frames
Codec ID : V_MPEG4/ISO/AVC
Duration : 1 h 5 min
Bit rate mode : Constant
Bit rate : 4 597 kb/s
Nominal bit rate : 6 000 kb/s
Width : 1 280 pixels
Height : 720 pixels
Display aspect ratio : 16:9
Frame rate mode : Constant
Frame rate : 29.970 (30000/1001) FPS
Color space : YUV
Chroma subsampling : 4:2:0
Bit depth : 8 bits
Scan type : Progressive
Bits/(Pixel*Frame) : 0.166
Stream size : 2.09 GiB (95%)
Default : Yes
Forced : No
Color range : Limited
Color primaries : BT.709
Transfer characteristics : BT.709
Matrix coefficients : BT.709

Audio
ID : 2
Format : E-AC-3
Format/Info : Enhanced Audio Coding 3
Format settings, Endianness : Big
Codec ID : A_EAC3
Duration : 1 h 5 min
Bit rate mode : Constant
Bit rate : 224 kb/s
Channel(s) : 2 channels
Channel positions : Front: L R
Sampling rate : 48.0 kHz
Frame rate : 187.500 FPS (256 spf)
Compression mode : Lossy
Stream size : 104 MiB (5%)
Language : English
Service kind : Complete Main
Default : Yes
Forced : No

Text
ID : 3
Format : UTF-8
Codec ID : S_TEXT/UTF8
Codec ID/Info : UTF-8 Plain Text
Duration : 1 h 3 min
Bit rate : 108 b/s
Count of elements : 1305
Stream size : 50.9 KiB (0%)
Language : English
Default : No
Forced : No


Screenshots:

Back to Natural: A Documentary Film (2019)

Back to Natural: A Documentary Film (2019)

Back to Natural: A Documentary Film (2019)

Back to Natural: A Documentary Film (2019)