Tags
Language
Tags

Baisikeli - The Story of an African Cycling Team (2013)

Posted By: notbanned
Baisikeli - The Story of an African Cycling Team (2013)

Baisikeli - The Story of an African Cycling Team (2013)
HDTV | 1280x720 | .MKV/AVC @ 2542 Kbps | 26mn 14s | 543 MiB
Audio: English MP2 192 kbps, 2 channels | Subs: None
Genre: Documentary

From the small town of Iten, 2 300m above the Rift Valley in Kenya, to the raw energy of Kigali, Rwanda, this is a story about the potential of African cycling and it’s ability to restore faith to this most beautiful, difficult and enigmatic of sports. Can Africa be the next cycling powerhouse? What challenges stand in the way? Who are the characters? Baisikeli follows the Kenyan National Cycling team as they hope to emulate the success of their running brothers and make a career in the sport.


General
Unique ID : 253700968349869073629271139669056179729 (0xBEDD0778C44CFCB18437F2843BF04E11)
Complete name : Baisikeli-The.Story.Of.An.African.Cycling.Team.720p.mkv
Format : Matroska
Format version : Version 4 / Version 2
File size : 543 MiB
Duration : 26mn 14s
Overall bit rate : 2 891 Kbps

Video
ID : 1
Format : AVC
Format/Info : Advanced Video Codec
Format profile : High@L4.1
Format settings, CABAC : Yes
Format settings, ReFrames : 5 frames
Codec ID : V_MPEG4/ISO/AVC
Duration : 26mn 14s
Bit rate : 2 642 Kbps
Width : 1 280 pixels
Height : 720 pixels
Display aspect ratio : 16:9
Frame rate mode : Constant
Frame rate : 25.000 fps
Color space : YUV
Chroma subsampling : 4:2:0
Bit depth : 8 bits
Scan type : Progressive
Bits/(Pixel*Frame) : 0.115
Stream size : 496 MiB (91%)
Writing library : x264 core 148 r2744 b97ae06
Encoding settings : cabac=1 / ref=5 / deblock=1:-2:-2 / analyse=0x3:0x113 / me=hex / subme=8 / psy=1 / psy_rd=1.00:0.00 / mixed_ref=1 / me_range=16 / chroma_me=1 / trellis=2 / 8x8dct=1 / cqm=0 / deadzone=21,11 / fast_pskip=1 / chroma_qp_offset=-2 / threads=12 / lookahead_threads=2 / sliced_threads=0 / nr=0 / decimate=1 / interlaced=0 / bluray_compat=0 / constrained_intra=0 / bframes=3 / b_pyramid=2 / b_adapt=1 / b_bias=0 / direct=3 / weightb=1 / open_gop=0 / weightp=2 / keyint=250 / keyint_min=25 / scenecut=40 / intra_refresh=0 / rc_lookahead=50 / rc=crf / mbtree=1 / crf=20.0 / qcomp=0.60 / qpmin=0 / qpmax=69 / qpstep=4 / ip_ratio=1.40 / aq=1:1.00
Language : English
Default : Yes
Forced : No
DURATION : 00:26:14.400000000
NUMBER_OF_FRAMES : 39360
NUMBER_OF_BYTES : 530796111
_STATISTICS_WRITING_APP : mkvmerge v9.8.0 ('Kuglblids') 64bit
_STATISTICS_WRITING_DATE_UTC : 2017-02-04 16:19:39
_STATISTICS_TAGS : BPS DURATION NUMBER_OF_FRAMES NUMBER_OF_BYTES

Audio
ID : 2
Format : MPEG Audio
Format version : Version 1
Format profile : Layer 2
Codec ID : A_MPEG/L2
Codec ID/Hint : MP2
Duration : 26mn 14s
Bit rate mode : Constant
Bit rate : 192 Kbps
Channel(s) : 2 channels
Sampling rate : 48.0 KHz
Compression mode : Lossy
Delay relative to video : 16ms
Stream size : 36.0 MiB (7%)
Default : Yes
Forced : No


Screenshots:

Baisikeli - The Story of an African Cycling Team (2013)

Baisikeli - The Story of an African Cycling Team (2013)

Baisikeli - The Story of an African Cycling Team (2013)

Baisikeli - The Story of an African Cycling Team (2013)