Tags
Language
Tags

Band of Brothers S01E01

Posted By: Tavaz
SD / BDRip IMDb
Band of Brothers S01E01

Band of Brothers S01E01
BDRip | MKV | 720x404 | English | H264 @ 1447 kbps | AAC @ 113 kbps | 1 h 13 min | 819 MiB
Genre: Action, Drama, History, War

The story of Easy Company of the U.S. Army 101st Airborne Division, and their mission in World War II Europe, from Operation Overlord, through V-J Day.

0d816ea5d81a4e9884bee7376dca313f.mkv (819.0 MB)



General
Unique ID : 206949214231341227775994645334793394842 (0x9BB0F80792B096D193E5ED3DF6781A9A)
Complete name : ./0d816ea5d81a4e9884bee7376dca313f.mkv
Format : Matroska
Format version : Version 4 / Version 2
File size : 819 MiB
Duration : 1 h 13 min
Overall bit rate : 1 564 kb/s
Encoded date : UTC 2017-07-28 17:11:55
Writing application : mkvmerge v14.0.0 ('Flow') 64bit
Writing library : libebml v1.3.4 + libmatroska v1.4.5

Video
ID : 1
Format : AVC
Format/Info : Advanced Video Codec
Format profile : High@L3.1
Format settings : CABAC / 15 Ref Frames
Format settings, CABAC : Yes
Format settings, RefFrames : 15 frames
Codec ID : V_MPEG4/ISO/AVC
Duration : 1 h 13 min
Bit rate : 1 448 kb/s
Width : 720 pixels
Height : 404 pixels
Display aspect ratio : 16:9
Frame rate mode : Constant
Frame rate : 23.976 (24000/1001) FPS
Color space : YUV
Chroma subsampling : 4:2:0
Bit depth : 8 bits
Scan type : Progressive
Bits/(Pixel*Frame) : 0.208
Stream size : 758 MiB (93%)
Writing library : x264 core 152 r2851kMod ba24899
Encoding settings : cabac=1 / ref=15 / deblock=1:-3:-3 / analyse=0x3:0x133 / me=tesa / subme=11 / psy=1 / fade_compensate=0.00 / psy_rd=1.00:0.00 / mixed_ref=1 / me_range=24 / chroma_me=1 / trellis=2 / 8x8dct=1 / cqm=0 / deadzone=21,11 / fast_pskip=0 / chroma_qp_offset=-2 / threads=13 / lookahead_threads=3 / sliced_threads=0 / nr=0 / decimate=1 / interlaced=0 / bluray_compat=0 / constrained_intra=0 / bframes=16 / b_pyramid=2 / b_adapt=2 / b_bias=0 / direct=3 / weightb=1 / open_gop=0 / weightp=2 / keyint=250 / keyint_min=23 / scenecut=40 / intra_refresh=0 / rc_lookahead=60 / rc=crf / mbtree=1 / crf=19.0000 / qcomp=0.60 / qpmin=0 / qpmax=69 / qpstep=4 / ip_ratio=1.40 / aq=1:1.00
Language : English
Default : Yes
Forced : No
Color range : Limited
Matrix coefficients : BT.709

Audio
ID : 2
Format : AAC
Format/Info : Advanced Audio Codec
Format profile : LC
Codec ID : A_AAC-2
Duration : 1 h 13 min
Bit rate : 114 kb/s
Channel(s) : 2 channels
Channel positions : Front: L R
Sampling rate : 48.0 kHz
Frame rate : 46.875 FPS (1024 SPF)
Compression mode : Lossy
Delay relative to video : 9 ms
Stream size : 59.6 MiB (7%)
Title : English
Language : English
Default : Yes
Forced : No

Menu
00:00:00.000 : en:00:00:00.000
00:04:06.246 : en:00:04:06.246
00:08:26.256 : en:00:08:26.256
00:23:44.340 : en:00:23:44.340
00:33:34.846 : en:00:33:34.846
00:42:35.511 : en:00:42:35.511
00:52:14.882 : en:00:52:14.882
01:09:33.086 : en:01:09:33.086





Band of Brothers S01E01


Band of Brothers S01E01


Band of Brothers S01E01


Band of Brothers S01E01


Band of Brothers S01E01

All episodes