SBS - Batavia Revealed: Shipwreck Psycho (2018)

Posted By: notbanned
720p (HD) / HDTV
SBS - Batavia Revealed: Shipwreck Psycho (2018)

SBS - Batavia Revealed: Shipwreck Psycho (2018)
HDTV | 1280x720 | .MKV/AVC @ 2201 Kbps | 51 min 57 s | 890 MiB
Audio: English MP2 192 kbps, 2 channels | Subs: English
Genre: Documentary

Batavia Revealed: Shipwreck Psycho explores the bloody truth behind Australia’s worst mass murder, investigating horrifying tale of one of the world’s most terrifying and gruesome shipwreck stories of all time. In 1629, the pride of the Dutch fleet was on its way to the East Indies when it hit a coral reef off the coast of Australia and sank. Some of the 300 passengers and crew drowned but most managed to swim to the nearby cluster of uninhabited islands. For the survivors, it was the equivalent of crash landing on the moon. They were stranded thousands of kilometres from any known civilisation, on alien land with little hope of rescue. The survivors probably thought their situation couldn’t get any worse. In fact, their nightmare was just beginning.

General
Unique ID : 256916548036488240681575187448329685325 (0xC14853CA67B7B3D40D232E1D57F8494D)
Complete name : Batavia.Revealed-Shipwreck.Psycho.2018.720p.mkv
Format : Matroska
Format version : Version 4 / Version 2
File size : 890 MiB
Duration : 51 min 57 s
Overall bit rate : 2 395 kb/s

Video
ID : 1
Format : AVC
Format/Info : Advanced Video Codec
Format profile : High@L4.1
Format settings, CABAC : Yes
Format settings, ReFrames : 5 frames
Codec ID : V_MPEG4/ISO/AVC
Duration : 51 min 57 s
Bit rate : 2 201 kb/s
Width : 1 280 pixels
Height : 720 pixels
Display aspect ratio : 16:9
Frame rate mode : Constant
Frame rate : 25.000 FPS
Color space : YUV
Chroma subsampling : 4:2:0
Bit depth : 8 bits
Scan type : Progressive
Bits/(Pixel*Frame) : 0.096
Stream size : 818 MiB (92%)
Writing library : x264 core 155 r2901 7d0ff22
Encoding settings : cabac=1 / ref=5 / deblock=1:-2:-2 / analyse=0x3:0x113 / me=hex / subme=8 / psy=1 / psy_rd=1.00:0.00 / mixed_ref=1 / me_range=16 / chroma_me=1 / trellis=2 / 8x8dct=1 / cqm=0 / deadzone=21,11 / fast_pskip=1 / chroma_qp_offset=-2 / threads=12 / lookahead_threads=2 / sliced_threads=0 / nr=0 / decimate=1 / interlaced=0 / bluray_compat=0 / constrained_intra=0 / bframes=3 / b_pyramid=2 / b_adapt=1 / b_bias=0 / direct=3 / weightb=1 / open_gop=0 / weightp=2 / keyint=250 / keyint_min=25 / scenecut=40 / intra_refresh=0 / rc_lookahead=50 / rc=crf / mbtree=1 / crf=20.0 / qcomp=0.60 / qpmin=0 / qpmax=69 / qpstep=4 / ip_ratio=1.40 / aq=1:1.00
Language : English
Default : Yes
Forced : No

Audio
ID : 2
Format : MPEG Audio
Format version : Version 1
Format profile : Layer 2
Codec ID : A_MPEG/L2
Codec ID/Hint : MP2
Duration : 51 min 57 s
Bit rate mode : Constant
Bit rate : 192 kb/s
Channel(s) : 2 channels
Sampling rate : 48.0 kHz
Frame rate : 41.667 FPS (1152 spf)
Compression mode : Lossy
Stream size : 71.4 MiB (8%)
Language : English
Default : Yes
Forced : No

Text
ID : 3
Format : UTF-8
Codec ID : S_TEXT/UTF8
Codec ID/Info : UTF-8 Plain Text
Duration : 51 min 22 s
Bit rate : 94 b/s
Count of elements : 839
Stream size : 35.6 KiB (0%)
Language : English
Default : Yes
Forced : No


Screenshots:

SBS - Batavia Revealed: Shipwreck Psycho (2018)

SBS - Batavia Revealed: Shipwreck Psycho (2018)

SBS - Batavia Revealed: Shipwreck Psycho (2018)

SBS - Batavia Revealed: Shipwreck Psycho (2018)