Tags
Language
Tags

Batman Begins (2005)

Posted By: Tavaz
1080p (FullHD) / BDRip IMDb
Batman Begins (2005)

Batman Begins (2005)
BDRip | MKV | 1920x800 | English | H265 @ 4996 kbps | AC-3 @ 640 kbps | 2 h 20 min | 5.52 GiB
Subtitles: English
Genre: Action, Crime, Drama

Driven by tragedy, billionaire Bruce Wayne dedicates his life to uncovering and defeating the corruption that plagues his home, Gotham City. Unable to work within the system, he instead creates a new identity, a symbol of fear for the criminal underworld - The Batman.

f897615e28fd07d944e297c0146b0b00.mkv (5.5 GB)



General
Unique ID : 141807633181472788282724954552577307594 (0x6AAF281E0F81B6B709651709E15433CA)
Complete name : ./f897615e28fd07d944e297c0146b0b00.mkv
Format : Matroska
Format version : Version 4 / Version 2
File size : 5.52 GiB
Duration : 2 h 20 min
Overall bit rate : 5 638 kb/s
Movie name : Batman Begins (2005)
Encoded date : UTC 2020-09-01 07:27:10
Writing application : mkvmerge v47.0.0 ('Black Flag') 64-bit
Writing library : libebml v1.3.10 + libmatroska v1.5.2 / Lavf58.20.100

Video
ID : 1
Format : HEVC
Format/Info : High Efficiency Video Coding
Format profile : Main@L4@Main
Codec ID : V_MPEGH/ISO/HEVC
Duration : 2 h 20 min
Bit rate : 4 996 kb/s
Width : 1 920 pixels
Height : 800 pixels
Display aspect ratio : 2.40:1
Frame rate mode : Variable
Frame rate : 23.976 FPS
Color space : YUV
Chroma subsampling : 4:2:0
Bit depth : 8 bits
Bits/(Pixel*Frame) : 0.136
Stream size : 4.89 GiB (89%)
Writing library : x265 2.9:[Linux][GCC 8.2.0][64 bit] 8bit+10bit+12bit
Encoding settings : cpuid=1111039 / frame-threads=3 / wpp / no-pmode / no-pme / no-psnr / no-ssim / log-level=2 / input-csp=1 / input-res=1920x800 / interlace=0 / total-frames=0 / level-idc=0 / high-tier=1 / uhd-bd=0 / ref=3 / no-allow-non-conformance / no-repeat-headers / annexb / no-aud / no-hrd / info / hash=0 / no-temporal-layers / open-gop / min-keyint=23 / keyint=250 / gop-lookahead=0 / bframes=4 / b-adapt=2 / b-pyramid / bframe-bias=0 / rc-lookahead=20 / lookahead-slices=5 / scenecut=40 / radl=0 / no-intra-refresh / ctu=64 / min-cu-size=8 / no-rect / no-amp / max-tu-size=32 / tu-inter-depth=1 / tu-intra-depth=1 / limit-tu=0 / rdoq-level=0 / dynamic-rd=0.00 / no-ssim-rd / signhide / no-tskip / nr-intra=0 / nr-inter=0 / no-constrained-intra / strong-intra-smoothing / max-merge=2 / limit-refs=3 / no-limit-modes / me=1 / subme=2 / merange=57 / temporal-mvp / weightp / no-weightb / no-analyze-src-pics / deblock=0:0 / sao / no-sao-non-deblock / rd=3 / no-early-skip / rskip / no-fast-intra / no-tskip-fast / no-cu-lossless / no-b-intra / no-splitrd-skip / rdpenalty=0 / psy-rd=2.00 / psy-rdoq=0.00 / no-rd-refine / no-lossless / cbqpoffs=0 / crqpoffs=0 / rc=abr / bitrate=5000 / qcomp=0.70 / qpstep=4 / stats-write=0 / stats-read=2 / cplxblur=20.0 / qblur=0.5 / ipratio=1.40 / pbratio=1.30 / aq-mode=1 / aq-strength=1.00 / cutree / zone-count=0 / no-strict-cbr / qg-size=32 / no-rc-grain / qpmax=69 / qpmin=0 / no-const-vbv / sar=1 / overscan=0 / videoformat=5 / range=0 / colorprim=2 / transfer=2 / colormatrix=2 / chromaloc=0 / display-window=0 / max-cll=0,0 / min-luma=0 / max-luma=255 / log2-max-poc-lsb=8 / vui-timing-info / vui-hrd-info / slices=1 / no-opt-qp-pps / no-opt-ref-list-length-pps / no-multi-pass-opt-rps / scenecut-bias=0.05 / no-opt-cu-delta-qp / no-aq-motion / no-hdr / no-hdr-opt / no-dhdr10-opt / no-idr-recovery-sei / analysis-reuse-level=5 / scale-factor=0 / refine-intra=0 / refine-inter=0 / refine-mv=0 / no-limit-sao / ctu-info=0 / no-lowpass-dct / refine-mv-type=0 / copy-pic=1 / max-ausize-factor=1.0 / no-dynamic-refine / no-single-sei
Language : English
Default : Yes
Forced : No

Audio
ID : 2
Format : AC-3
Format/Info : Audio Coding 3
Format settings, Endianness : Big
Codec ID : A_AC3
Duration : 2 h 20 min
Bit rate mode : Constant
Bit rate : 640 kb/s
Channel(s) : 6 channels
Channel positions : Front: L C R, Side: L R, LFE
Sampling rate : 48.0 kHz
Frame rate : 31.250 FPS (1536 SPF)
Bit depth : 16 bits
Compression mode : Lossy
Stream size : 641 MiB (11%)
Title : Dolby Digital 5.1 (Surround)
Writing library : Lavc58.35.100 ac3
Language : English
Service kind : Complete Main
Default : Yes
Forced : No

Text
ID : 3
Format : UTF-8
Codec ID : S_TEXT/UTF8
Codec ID/Info : UTF-8 Plain Text
Duration : 2 h 19 min
Bit rate : 51 b/s
Count of elements : 1467
Stream size : 52.6 KiB (0%)
Title : English (SDH)
Language : English
Default : Yes
Forced : No

Menu
00:00:00.000 : :You're Practice
00:03:39.219 : :More Than Just a Man
00:07:31.117 : :What Do You Fear?
00:11:34.026 : :Tragedy
00:16:15.641 : :The Will to Act
00:19:44.349 : :This House
00:24:19.291 : :Not One of Your Good People
00:28:24.703 : :Carmine Falcone
00:31:25.383 : :Embrace Your Fear
00:35:53.818 : :Gotham Must Be Destroyed
00:38:24.635 : :Monastery Mayhem
00:41:14.638 : :Incorruptible Symbol
00:43:08.252 : :Nest of Bats
00:46:57.981 : :Welcome Home
00:49:43.981 : :Applied Sciences
00:53:26.203 : :Gordon's Visitor
00:55:55.018 : :Does It Come in Black?
00:58:02.145 : :Secrets of Scary People
01:03:31.808 : :Rattle the Cages
01:05:53.115 : :Missing Weapon
01:08:38.781 : :More Inside
01:11:25.781 : :Crane's Mask
01:13:19.561 : :Do I Look Like a Cop?
01:16:16.238 : :Lighten Up
01:19:50.285 : :Work to Do
01:23:54.362 : :Arkham's Basement Secrets
01:29:02.670 : :Winged Backup
01:32:36.717 : :Tumbler on the Roof
01:37:49.029 : :The Monster of Yours
01:40:33.694 : :Dual Identities
01:45:08.969 : :Purging Fire
01:49:32.065 : :Inferno Rescue
01:51:29.182 : :Spread the Word: Panic
01:54:49.048 : :What Defines Me
01:58:11.084 : :Catching a Train
02:01:54.974 : :Not Kill But Not Save
02:05:01.160 : :New Owner
02:06:06.892 : :This Is Your Mask
02:09:18.417 : :Calling Card
02:10:57.015 : :End Credits





Batman Begins (2005)


Batman Begins (2005)


Batman Begins (2005)


Batman Begins (2005)


Batman Begins (2005)