Tags
Language
Tags

Batman: Gotham by Gaslight (2018)

Posted By: Tavaz
2160p (4k UHD) / BDRip IMDb
Batman: Gotham by Gaslight (2018)

Batman: Gotham by Gaslight (2018)
BDRip | MKV | 3840x2160 | English | H265 @ 4904 kbps | AC-3 @ 640 kbps | 1 h 17 min | 3.00 GiB
Subtitles: Portuguese, Spanish, French, English
Genre: Action, Animation, Science Fiction, Thriller

In an alternative Victorian Age Gotham City, Batman begins his war on crime while he investigates a new series of murders by Jack the Ripper.

1ecdcfa5a18643f7ad3a2fb53d9e315b.mkv (3.0 GB)



General
Complete name : ./1ecdcfa5a18643f7ad3a2fb53d9e315b.mkv
Format : Matroska
Format version : Version 4 / Version 2
File size : 3.00 GiB
Duration : 1 h 17 min
Overall bit rate : 5 577 kb/s
Encoded date : UTC 2018-02-22 05:35:55
Writing application : mkvmerge v20.0.0 ('I Am The Sun') 64-bit
Writing library : libebml v1.3.5 + libmatroska v1.4.8
Cover : Yes
Attachments : cover.jpg

Video
ID : 1
Format : HEVC
Format/Info : High Efficiency Video Coding
Format profile : Main 10@L5@Main
Codec ID : V_MPEGH/ISO/HEVC
Duration : 1 h 17 min
Bit rate : 4 904 kb/s
Width : 3 840 pixels
Height : 2 160 pixels
Display aspect ratio : 16:9
Frame rate mode : Constant
Frame rate : 23.976 (24000/1001) FPS
Color space : YUV
Chroma subsampling : 4:2:0
Bit depth : 10 bits
Bits/(Pixel*Frame) : 0.025
Stream size : 2.64 GiB (88%)
Title : [SGJ5-LorD]
Language : English
Default : Yes
Forced : No
Color range : Limited
Color primaries : BT.2020
Transfer characteristics : PQ
Matrix coefficients : BT.2020 non-constant

Audio
ID : 2
Format : AC-3
Format/Info : Audio Coding 3
Format settings, Endianness : Big
Codec ID : A_AC3
Duration : 1 h 17 min
Bit rate mode : Constant
Bit rate : 640 kb/s
Channel(s) : 6 channels
Channel positions : Front: L C R, Side: L R, LFE
Sampling rate : 48.0 kHz
Frame rate : 31.250 FPS (1536 SPF)
Bit depth : 16 bits
Compression mode : Lossy
Stream size : 353 MiB (11%)
Language : English
Service kind : Complete Main
Default : Yes
Forced : No

Text #1
ID : 3
Format : UTF-8
Codec ID : S_TEXT/UTF8
Codec ID/Info : UTF-8 Plain Text
Duration : 1 h 16 min
Bit rate : 53 b/s
Count of elements : 870
Stream size : 29.8 KiB (0%)
Language : Portuguese
Default : Yes
Forced : No

Text #2
ID : 4
Format : PGS
Muxing mode : zlib
Codec ID : S_HDMV/PGS
Codec ID/Info : Picture based subtitle format used on BDs/HD-DVDs
Duration : 1 h 16 min
Bit rate : 35.1 kb/s
Count of elements : 2040
Stream size : 19.3 MiB (1%)
Title : SDH
Language : English
Default : No
Forced : No

Text #3
ID : 5
Format : PGS
Muxing mode : zlib
Codec ID : S_HDMV/PGS
Codec ID/Info : Picture based subtitle format used on BDs/HD-DVDs
Duration : 1 h 16 min
Bit rate : 32.3 kb/s
Count of elements : 1708
Stream size : 17.6 MiB (1%)
Title : Canadian
Language : French
Default : No
Forced : No

Text #4
ID : 6
Format : PGS
Muxing mode : zlib
Codec ID : S_HDMV/PGS
Codec ID/Info : Picture based subtitle format used on BDs/HD-DVDs
Duration : 1 h 16 min
Bit rate : 31.9 kb/s
Count of elements : 1726
Stream size : 17.4 MiB (1%)
Title : Latin American
Language : Spanish
Default : No
Forced : No

Menu
00:00:00.000 : en:Chapter 1
00:13:23.177 : en:Chapter 2
00:21:15.316 : en:Chapter 3
00:33:37.891 : en:Chapter 4
00:45:00.865 : en:Chapter 5
00:53:28.872 : en:Chapter 6
01:04:41.002 : en:Chapter 7
01:14:02.271 : en:Chapter 8





Batman: Gotham by Gaslight (2018)


Batman: Gotham by Gaslight (2018)


Batman: Gotham by Gaslight (2018)


Batman: Gotham by Gaslight (2018)


Batman: Gotham by Gaslight (2018)