Batman Ninja (2018)

Posted By: JohnSmith
1080p (FullHD) / BDRip IMDb
Batman Ninja (2018)

Batman Ninja (2018)
BRRip | MKV / AVC@1700 kb/s | 720x400 | 1h 25mn | 1.27 GB | English: AC3, 448 kb/s (6 ch)
BDRip 720p | MKV / AVC@5820 kb/s | 1280x720 | 1h 25mn | 4.37 GB
English: DTS, 1509 kb/s (6 ch) | Subtitles: English
BDRip 1080p | MKV / AVC@10.5 Mb/s | 1920x1080 | 1h 25mn | 7.95 GB
English: DTS-HD MA, 2830 kb/s (6 ch) | Subtitles: English
Genre: Animation | Action

Batman Ninja takes a journey across the ages as Gorilla Grodd's time displacement machine transports many of Batman's worst enemies to feudal Japan - along with the Dark Knight and a few of his allies. The villains take over the forms of the feudal lords that rule the divided land, with the Joker taking the lead among the warring factions. As his traditional high-tech weaponry is exhausted almost immediately, Batman must rely on his intellect and his allies - including Catwoman and the extended Bat-family - to restore order to the land, and return to present-day Gotham City.




General
Unique ID : 211621308142221772728626282539681170917 (0x9F34C80B4834076C9422D271DE99C5E5)
Complete name : D:\Downloads\Batman Ninja 2018 BRRip AC3 X264-CMRG\Batman Ninja 2018 BRRip AC3 X264-CMRG.mkv
Format : Matroska
Format version : Version 4 / Version 2
File size : 1.27 GiB
Duration : 1 h 25 min
Overall bit rate : 2 133 kb/s
Encoded date : UTC 2018-04-26 19:07:45
Writing application : mkvmerge v15.0.0 ('Duel with the Devil') 64-bit
Writing library : libebml v1.3.5 + libmatroska v1.4.5
Writing frontend : StaxRip v1.7.0.0

Video
ID : 1
Format : AVC
Format/Info : Advanced Video Codec
Format profile : High@L4.1
Format settings, CABAC : Yes
Format settings, ReFrames : 5 frames
Codec ID : V_MPEG4/ISO/AVC
Duration : 1 h 25 min
Bit rate : 1 700 kb/s
Width : 720 pixels
Height : 400 pixels
Display aspect ratio : 16:9
Frame rate mode : Constant
Frame rate : 23.976 (24000/1001) FPS
Color space : YUV
Chroma subsampling : 4:2:0
Bit depth : 8 bits
Scan type : Progressive
Bits/(Pixel*Frame) : 0.246
Stream size : 1 020 MiB (78%)
Writing library : x264 core 152 r2851 ba24899
Encoding settings : cabac=1 / ref=5 / deblock=1:-3:-3 / analyse=0x3:0x113 / me=hex / subme=7 / psy=1 / psy_rd=1.00:0.00 / mixed_ref=1 / me_range=16 / chroma_me=1 / trellis=2 / 8x8dct=1 / cqm=0 / deadzone=21,11 / fast_pskip=1 / chroma_qp_offset=-2 / threads=90 / lookahead_threads=3 / sliced_threads=0 / nr=0 / decimate=1 / interlaced=0 / bluray_compat=0 / constrained_intra=0 / bframes=5 / b_pyramid=2 / b_adapt=2 / b_bias=0 / direct=1 / weightb=1 / open_gop=0 / weightp=2 / keyint=250 / keyint_min=23 / scenecut=40 / intra_refresh=0 / rc_lookahead=40 / rc=abr / mbtree=1 / bitrate=1700 / ratetol=1.0 / qcomp=0.60 / qpmin=0 / qpmax=69 / qpstep=4 / ip_ratio=1.40 / aq=1:1.00
Default : Yes
Forced : No

Audio
ID : 2
Format : AC-3
Format/Info : Audio Coding 3
Format settings, Endianness : Big
Codec ID : A_AC3
Duration : 1 h 25 min
Bit rate mode : Constant
Bit rate : 448 kb/s
Channel(s) : 6 channels
Channel positions : Front: L C R, Side: L R, LFE
Sampling rate : 48.0 kHz
Frame rate : 31.250 FPS (1536 spf)
Bit depth : 16 bits
Compression mode : Lossy
Stream size : 273 MiB (21%)
Language : English
Service kind : Complete Main
Default : No
Forced : No

Text
ID : 3
Format : PGS
Muxing mode : zlib
Codec ID : S_HDMV/PGS
Codec ID/Info : Picture based subtitle format used on BDs/HD-DVDs
Duration : 1 h 24 min
Bit rate : 34.8 kb/s
Count of elements : 2320
Stream size : 21.0 MiB (2%)
Language : English
Default : No
Forced : No

Menu
00:00:00.000 : en:00:00:00.000
00:08:32.345 : en:00:08:32.345
00:22:30.683 : en:00:22:30.683
00:31:12.537 : en:00:31:12.537
00:42:46.689 : en:00:42:46.689
00:51:34.425 : en:00:51:34.425
01:01:01.449 : en:01:01:01.449
01:12:15.831 : en:01:12:15.831
01:20:28.657 : en:01:20:28.657





General
Unique ID : 256129503224519345648322325344251079738 (0xC0B0BF7C47B096E12D91D9F43FF0EC3A)
Complete name : D:\Downloads\Batman.Ninja.2018.BluRay.720p.DTS.x264-MTeam\Batman.Ninja.2018.BluRay.720p.DTS.x264-MTeam.mkv
Format : Matroska
Format version : Version 4 / Version 2
File size : 4.37 GiB
Duration : 1 h 25 min
Overall bit rate : 7 340 kb/s
Encoded date : UTC 2018-04-25 13:36:36
Writing application : mkvmerge v21.0.0 ('Tardigrades Will Inherit The Earth') 64-bit
Writing library : libebml v1.3.5 + libmatroska v1.4.8

Video
ID : 1
Format : AVC
Format/Info : Advanced Video Codec
Format profile : High@L4.1
Format settings, CABAC : Yes
Format settings, ReFrames : 12 frames
Codec ID : V_MPEG4/ISO/AVC
Duration : 1 h 25 min
Bit rate : 5 821 kb/s
Width : 1 280 pixels
Height : 720 pixels
Display aspect ratio : 16:9
Frame rate mode : Constant
Frame rate : 23.976 (24000/1001) FPS
Color space : YUV
Chroma subsampling : 4:2:0
Bit depth : 8 bits
Scan type : Progressive
Bits/(Pixel*Frame) : 0.263
Stream size : 3.47 GiB (79%)
Writing library : x264 core 155 r2901 7d0ff22
Encoding settings : cabac=1 / ref=12 / deblock=1:-3:-3 / analyse=0x3:0x113 / me=umh / subme=10 / psy=1 / psy_rd=1.05:0.10 / mixed_ref=1 / me_range=32 / chroma_me=1 / trellis=2 / 8x8dct=1 / cqm=0 / deadzone=21,11 / fast_pskip=0 / chroma_qp_offset=-2 / threads=12 / lookahead_threads=1 / sliced_threads=0 / nr=0 / decimate=1 / interlaced=0 / bluray_compat=0 / constrained_intra=0 / bframes=6 / b_pyramid=2 / b_adapt=2 / b_bias=0 / direct=3 / weightb=1 / open_gop=0 / weightp=2 / keyint=250 / keyint_min=23 / scenecut=40 / intra_refresh=0 / rc=2pass / mbtree=0 / bitrate=5821 / ratetol=1.0 / qcomp=0.70 / qpmin=0 / qpmax=69 / qpstep=4 / cplxblur=20.0 / qblur=0.5 / ip_ratio=1.40 / pb_ratio=1.30 / aq=3:1.00
Default : Yes
Forced : No

Audio
ID : 2
Format : DTS
Format/Info : Digital Theater Systems
Mode : 16
Format settings, Endianness : Big
Codec ID : A_DTS
Duration : 1 h 25 min
Bit rate mode : Constant
Bit rate : 1 509 kb/s
Channel(s) : 6 channels
Channel positions : Front: L C R, Side: L R, LFE
Sampling rate : 48.0 kHz
Frame rate : 93.750 FPS (512 spf)
Bit depth : 24 bits
Compression mode : Lossy
Stream size : 920 MiB (21%)
Language : English
Default : Yes
Forced : No

Text
ID : 3
Format : PGS
Muxing mode : zlib
Codec ID : S_HDMV/PGS
Codec ID/Info : Picture based subtitle format used on BDs/HD-DVDs
Duration : 1 h 24 min
Bit rate : 34.8 kb/s
Count of elements : 2320
Stream size : 21.0 MiB (0%)
Language : English
Default : Yes
Forced : No

Menu
00:00:00.000 : en:00:00:00.000
00:08:32.345 : en:00:08:32.345
00:22:30.683 : en:00:22:30.683
00:31:12.537 : en:00:31:12.537
00:42:46.689 : en:00:42:46.689
00:51:34.425 : en:00:51:34.425
01:01:01.449 : en:01:01:01.449
01:12:15.831 : en:01:12:15.831
01:20:28.657 : en:01:20:28.657





General
Unique ID : 251979009388892934692089682262233221511 (0xBD916457176991C42FC15C8C69208987)
Complete name : D:\Downloads\Batman.Ninja.2018.BluRay.1080p.DTS-HD.MA.5.1.x264-MTeam\Batman.Ninja.2018.BluRay.1080p.DTS-HD.MA.5.1.x264-MTeam.mkv
Format : Matroska
Format version : Version 4 / Version 2
File size : 7.95 GiB
Duration : 1 h 25 min
Overall bit rate : 13.3 Mb/s
Encoded date : UTC 2018-04-25 19:23:18
Writing application : mkvmerge v21.0.0 ('Tardigrades Will Inherit The Earth') 64-bit
Writing library : libebml v1.3.5 + libmatroska v1.4.8

Video
ID : 1
Format : AVC
Format/Info : Advanced Video Codec
Format profile : High@L4.1
Format settings, CABAC : Yes
Format settings, ReFrames : 5 frames
Codec ID : V_MPEG4/ISO/AVC
Duration : 1 h 25 min
Bit rate : 10.5 Mb/s
Width : 1 920 pixels
Height : 1 080 pixels
Display aspect ratio : 16:9
Frame rate mode : Constant
Frame rate : 23.976 (24000/1001) FPS
Color space : YUV
Chroma subsampling : 4:2:0
Bit depth : 8 bits
Scan type : Progressive
Bits/(Pixel*Frame) : 0.211
Stream size : 6.26 GiB (79%)
Writing library : x264 core 155 r2901 7d0ff22
Encoding settings : cabac=1 / ref=5 / deblock=1:-3:-3 / analyse=0x3:0x113 / me=umh / subme=10 / psy=1 / psy_rd=1.05:0.10 / mixed_ref=1 / me_range=48 / chroma_me=1 / trellis=2 / 8x8dct=1 / cqm=0 / deadzone=21,11 / fast_pskip=0 / chroma_qp_offset=-2 / threads=12 / lookahead_threads=1 / sliced_threads=0 / nr=0 / decimate=1 / interlaced=0 / bluray_compat=0 / constrained_intra=0 / bframes=6 / b_pyramid=2 / b_adapt=2 / b_bias=0 / direct=3 / weightb=1 / open_gop=0 / weightp=2 / keyint=250 / keyint_min=23 / scenecut=40 / intra_refresh=0 / rc=2pass / mbtree=0 / bitrate=10510 / ratetol=2.0 / qcomp=0.70 / qpmin=0 / qpmax=69 / qpstep=4 / cplxblur=20.0 / qblur=0.5 / ip_ratio=1.40 / pb_ratio=1.30 / aq=3:1.00
Default : Yes
Forced : No

Audio
ID : 2
Format : DTS
Format/Info : Digital Theater Systems
Format profile : MA / Core
Mode : 16
Format settings, Endianness : Big
Codec ID : A_DTS
Duration : 1 h 25 min
Bit rate mode : Variable / Constant
Bit rate : 2 830 kb/s / 1 509 kb/s
Channel(s) : 6 channels
Channel positions : Front: L C R, Side: L R, LFE
Sampling rate : 48.0 kHz
Frame rate : 93.750 FPS (512 spf)
Bit depth : 24 bits
Compression mode : Lossless / Lossy
Stream size : 1.69 GiB (21%)
Language : English
Default : Yes
Forced : No

Text
ID : 3
Format : PGS
Muxing mode : zlib
Codec ID : S_HDMV/PGS
Codec ID/Info : Picture based subtitle format used on BDs/HD-DVDs
Duration : 1 h 24 min
Bit rate : 34.8 kb/s
Count of elements : 2320
Stream size : 21.0 MiB (0%)
Language : English
Default : Yes
Forced : No

Menu
00:00:00.000 : en:00:00:00.000
00:08:32.345 : en:00:08:32.345
00:22:30.683 : en:00:22:30.683
00:31:12.537 : en:00:31:12.537
00:42:46.689 : en:00:42:46.689
00:51:34.425 : en:00:51:34.425
01:01:01.449 : en:01:01:01.449
01:12:15.831 : en:01:12:15.831
01:20:28.657 : en:01:20:28.657




Screenshots BRRip

Batman Ninja (2018)

Batman Ninja (2018)

Batman Ninja (2018)


Screenshots BDRip 720p

Batman Ninja (2018)

Batman Ninja (2018)

Batman Ninja (2018)


Screenshots BDRip 1080p

Batman Ninja (2018)

Batman Ninja (2018)

Batman Ninja (2018)