Tags
Language
Tags

L.L.C - Battle of Midway: The True Story (2019)

Posted By: Tutorial
1080p (FullHD) / HDTV
L.L.C - Battle of Midway: The True Story (2019)

L.L.C - Battle of Midway: The True Story (2019)
HDTV | 1920 x 1080 | .MP4/AVC @ 4500 Kbps | 51 min 0 s | 1.64 GB
Audio: English AAC 161 Kbps, 2 channels | Subs: English
Genre: Documentary

It's June 1942 and the world's fate is about to be decided by a handful of pilots and their untested aircraft. Experience an inside look at the Battle of Midway, captured through rarely seen battle footage and firsthand accounts from its hero dive-bombing pilot, "Dusty" Kleiss. This is an hour-by-hour recount of one of the most pivotal conflicts of the 20th century. Take a closer look at how this desperately needed victory came about through the design of U.S. airplanes, the skill of the pilots, the element of surprise, and a stroke of luck.

General
Complete name : Battle.of.Midway.The.True.Story.mp4
Format : MPEG-4
Format profile : Base Media
Codec ID : isom (isom/iso2/avc1/mp41)
File size : 1.64 GiB
Duration : 51 min 0 s
Overall bit rate mode : Variable
Overall bit rate : 4 605 kb/s
Movie name : Battle.of.Midway.The.True.Story.1080p.HDTV.x264.AAC..org
Performer : VideoProc
Genre : Video
Writing application : Lavf58.29.100
Comment : Battle.of.Midway.The.True.Story.1080p.HDTV.x264.AAC..org

Video
ID : 1
Format : AVC
Format/Info : Advanced Video Codec
Format profile : Main@L4.2
Format settings, CABAC : Yes
Format settings, ReFrames : 1 frame
Codec ID : avc1
Codec ID/Info : Advanced Video Coding
Duration : 51 min 0 s
Bit rate : 4 500 kb/s
Width : 1 920 pixels
Height : 1 080 pixels
Display aspect ratio : 16:9
Frame rate mode : Constant
Frame rate : 25.000 FPS
Color space : YUV
Chroma subsampling : 4:2:0
Bit depth : 8 bits
Scan type : Progressive
Bits/(Pixel*Frame) : 0.087
Stream size : 1.58 GiB (96%)
Writing library : x264 core 159
Encoding settings : cabac=1 / ref=1 / deblock=1:-1:-1 / analyse=0x1:0x11 / me=hex / subme=2 / psy=1 / psy_rd=1.00:0.15 / mixed_ref=0 / me_range=16 / chroma_me=1 / trellis=0 / 8x8dct=0 / cqm=0 / deadzone=21,11 / fast_pskip=1 / chroma_qp_offset=0 / threads=3 / lookahead_threads=1 / sliced_threads=0 / nr=0 / decimate=1 / interlaced=0 / bluray_compat=0 / constrained_intra=0 / bframes=0 / weightp=1 / keyint=250 / keyint_min=25 / scenecut=40 / intra_refresh=0 / rc_lookahead=10 / rc=cbr / mbtree=1 / bitrate=4500 / ratetol=1.0 / qcomp=0.60 / qpmin=0 / qpmax=69 / qpstep=4 / vbv_maxrate=4500 / vbv_bufsize=1835 / nal_hrd=none / filler=0 / ip_ratio=1.40 / aq=1:1.00

Audio
ID : 2
Format : AAC
Format/Info : Advanced Audio Codec
Format profile : LC
Codec ID : 40
Duration : 51 min 0 s
Bit rate mode : Constant
Bit rate : 161 kb/s
Channel(s) : 2 channels
Channel positions : Front: L R
Sampling rate : 48.0 kHz
Frame rate : 46.875 FPS (1024 spf)
Compression mode : Lossy
Stream size : 58.6 MiB (3%)
Default : Yes
Alternate group : 1

Text #1
ID : 3
Format : Timed Text
Muxing mode : sbtl
Codec ID : tx3g
Duration : 50 min 57 s
Bit rate mode : Variable
Bit rate : 98 b/s
Stream size : 36.7 KiB (0%)
Language : Avestan
Default : Yes
Forced : No
Alternate group : 3

Text #2
ID : 1-CC1
Format : EIA-608
Muxing mode : SCTE 128 / DTVCC Transport
Muxing mode, more info : Muxed in Video #1
Duration : 51 min 0 s
Bit rate mode : Constant
Stream size : 0.00 Byte (0%)
Encoded stream size : 0.00 Byte (0%)
CaptionServiceName : CC1
Screenshots

L.L.C - Battle of Midway: The True Story (2019)

L.L.C - Battle of Midway: The True Story (2019)

L.L.C - Battle of Midway: The True Story (2019)

Welcome to my blog - daily update!
L.L.C - Battle of Midway: The True Story (2019)