Battlestar Galactica: Blood & Chrome (2012)

Posted By: NaVi7
Battlestar Galactica: Blood & Chrome (2012)

Battlestar Galactica: Blood & Chrome (2012)
BDRip | AVI / XVID, 1699 Kbps | 720x400 | 1h 33mn | 1.37 GB | English: AC3, 384 Kbps (6 ch) | Subtitles: none
BDRip 1080p | MKV / AVC, 8518 Kbps | 1920x1080 | 1h 33mn | 6.55 GB | English: DTS, 1509 Kbps (6 ch) | Subtitles: English
Genre: Sci-Fi

The film takes place in the midst of the first Cylon war. As the battle between humans and their creation, the sentient robotic Cylons, rages across the twelve colonial worlds, gifted fighter pilot William Adama (Luke Pasqualino) finds himself assigned to one of the most powerful Battlestars in the Colonial fleet: the Galactica. Full of ambition and hungry for action, Adama quickly finds himself at odds with his co-pilot, battle-weary officer Coker Fasjovik (Ben Cotton). With only 47 days left in his tour of duty, Coker desires an end to battle as much as Adama craves its onset.

imdb

General
Complete name : Battlestar.Galactica.Blood.and.Chrome.2012.BRRip.XviD.AC3.RoSubbed-PlayXD.avi
Format : AVI
Format/Info : Audio Video Interleave
File size : 1.37 GiB
Duration : 1h 33mn
Overall bit rate : 2 090 Kbps

Video
ID : 0
Format : MPEG-4 Visual
Format profile : Advanced Simple@L5
Format settings, BVOP : 2
Format settings, QPel : No
Format settings, GMC : No warppoints
Format settings, Matrix : Default (H.263)
Codec ID : XVID
Codec ID/Hint : XviD
Duration : 1h 33mn
Bit rate : 1 699 Kbps
Width : 720 pixels
Height : 400 pixels
Display aspect ratio : 16:9
Frame rate : 23.976 fps
Color space : YUV
Chroma subsampling : 4:2:0
Bit depth : 8 bits
Scan type : Progressive
Compression mode : Lossy
Bits/(Pixel*Frame) : 0.246
Stream size : 1.11 GiB (81%)
Writing library : XviD 1.2.1 (UTC 2008-12-04)

Audio
ID : 1
Format : AC-3
Format/Info : Audio Coding 3
Mode extension : CM (complete main)
Format settings, Endianness : Big
Codec ID : 2000
Duration : 1h 33mn
Bit rate mode : Constant
Bit rate : 384 Kbps
Channel(s) : 6 channels
Channel positions : Front: L C R, Side: L R, LFE
Sampling rate : 48.0 KHz
Bit depth : 16 bits
Compression mode : Lossy
Stream size : 257 MiB (18%)
Alignment : Aligned on interleaves
Interleave, duration : 64 ms (1.53 video frames)
Interleave, preload duration : 192 ms
Title : battlestar.galactica.blood.and.chrome.2012.720p.bluray.x264-geckos - [1] English_audio

General
Complete name : battlestar.galactica.blood.and.chrome.2012.1080p.bluray.x264-geckos.mkv
Format : Matroska
Format version : Version 2
File size : 6.55 GiB
Duration : 1h 33mn
Overall bit rate : 10.0 Mbps
Writing application : mkvmerge v4.1.1 ('Bouncin' Back') built on Jul 3 2010 22:54:08
Writing library : libebml v1.0.0 + libmatroska v1.0

Video
ID : 1
Format : AVC
Format/Info : Advanced Video Codec
Format profile : High@L4.1
Format settings, CABAC : Yes
Format settings, ReFrames : 4 frames
Codec ID : V_MPEG4/ISO/AVC
Duration : 1h 33mn
Bit rate : 8 518 Kbps
Width : 1 920 pixels
Height : 1 080 pixels
Display aspect ratio : 16:9
Frame rate mode : Constant
Frame rate : 23.976 fps
Color space : YUV
Chroma subsampling : 4:2:0
Bit depth : 8 bits
Scan type : Progressive
Bits/(Pixel*Frame) : 0.171
Stream size : 5.43 GiB (83%)
Writing library : x264 core 129 r2245 bc13772
Encoding settings : cabac=1 / ref=4 / deblock=1:0:0 / analyse=0x3:0x133 / me=umh / subme=7 / psy=1 / psy_rd=1.00:0.00 / mixed_ref=1 / me_range=16 / chroma_me=1 / trellis=1 / 8x8dct=1 / cqm=0 / deadzone=21,11 / fast_pskip=0 / chroma_qp_offset=-2 / threads=12 / lookahead_threads=2 / sliced_threads=0 / nr=0 / decimate=1 / interlaced=0 / bluray_compat=0 / constrained_intra=0 / bframes=3 / b_pyramid=2 / b_adapt=1 / b_bias=0 / direct=1 / weightb=1 / open_gop=0 / weightp=2 / keyint=250 / keyint_min=23 / scenecut=40 / intra_refresh=0 / rc_lookahead=40 / rc=2pass / mbtree=1 / bitrate=8518 / ratetol=1.0 / qcomp=0.60 / qpmin=0 / qpmax=69 / qpstep=4 / cplxblur=20.0 / qblur=0.5 / ip_ratio=1.40 / aq=1:1.00
Language : English
Default : Yes
Forced : No

Audio
ID : 2
Format : DTS
Format/Info : Digital Theater Systems
Mode : 16
Format settings, Endianness : Big
Codec ID : A_DTS
Duration : 1h 33mn
Bit rate mode : Constant
Bit rate : 1 509 Kbps
Channel(s) : 6 channels
Channel positions : Front: L C R, Side: L R, LFE
Sampling rate : 48.0 KHz
Bit depth : 24 bits
Compression mode : Lossy
Stream size : 1 010 MiB (15%)
Title : DTS
Language : English
Default : Yes
Forced : No

Text
ID : 3
Format : UTF-8
Codec ID : S_TEXT/UTF8
Codec ID/Info : UTF-8 Plain Text
Title : English
Language : English
Default : No
Forced : No


screenshots - BDRip:

Battlestar Galactica: Blood & Chrome (2012)

Battlestar Galactica: Blood & Chrome (2012)

Battlestar Galactica: Blood & Chrome (2012)


screenshots - BDRip 1080p:

Battlestar Galactica: Blood & Chrome (2012)

Battlestar Galactica: Blood & Chrome (2012)

Battlestar Galactica: Blood & Chrome (2012)


Welcome to My Blog!

Subscribe to My Newsletter!

No more mirrors!

If you want to download it, but found out that links are dead, just leave a comment or PM me!
Download Links:
Uploaded | Rapidgator - BDRip
Uploaded | Rapidgator - BDRip 1080p
Links to RapidGator and Uploaded are inside the html file. Download the file and open it in your browser.