Tags
Language
Tags

Beauty and the Beast (2017) [3D]

Posted By: JohnSmith
Beauty and the Beast (2017) [3D]

Beauty and the Beast (2017)
3D HSBS | BDRip 1080p | MKV / AVC@15.5 Mb/s | 1920x1080 | 2h 9mn | 15.3 GB
English: DTS, 1509 kb/s (6 ch) | Subtitles: English
3D HOU | BDRip 1080p | MKV / AVC@16 Mb/s | 1920x1080 | 2h 9mn | 15.8 GB
English: DTS, 1509 kb/s (6 ch) | Subtitles: English
Genre: Family | Fantasy | Musical | Romance

Disney's animated classic takes on a new form, with a widened mythology and an all-star cast. A young prince, imprisoned in the form of a beast, can be freed only by true love. What may be his only opportunity arrives when he meets Belle, the only human girl to ever visit the castle since it was enchanted.




General
Unique ID : 195761288316282106625879694068156947531 (0x934640B1BC1017B6A76EC805AEE75C4B)
Complete name : A:\Beauty.and.the.Beast.2017.1080p.3D.BluRay.Half-SBS-FGT.mkv
Format : Matroska
Format version : Version 4 / Version 2
File size : 15.3 GiB
Duration : 2 h 9 min
Overall bit rate : 17.0 Mb/s
Encoded date : UTC 2017-06-15 08:30:14
Writing application : mkvmerge v8.3.0 ('Over the Horizon') 64bit
Writing library : libebml v1.3.1 + libmatroska v1.4.2

Video
ID : 1
Format : AVC
Format/Info : Advanced Video Codec
Format profile : High@L4.1
Format settings, CABAC : Yes
Format settings, ReFrames : 2 frames
Format settings, GOP : M=3, N=24
Codec ID : V_MPEG4/ISO/AVC
Duration : 2 h 9 min
Bit rate : 15.5 Mb/s
Width : 1 920 pixels
Height : 1 080 pixels
Display aspect ratio : 16:9
Frame rate mode : Constant
Frame rate : 23.976 (24000/1001) FPS
Color space : YUV
Chroma subsampling : 4:2:0
Bit depth : 8 bits
Scan type : Progressive
Bits/(Pixel*Frame) : 0.312
Stream size : 14.0 GiB (91%)
Writing library : x264 core 142
Encoding settings : cabac=1 / ref=1 / deblock=1:-1:-1 / analyse=0x3:0 / me=hex / subme=5 / psy=0 / mixed_ref=0 / me_range=16 / chroma_me=1 / trellis=0 / 8x8dct=1 / cqm=0 / deadzone=21,11 / fast_pskip=0 / chroma_qp_offset=0 / threads=8 / lookahead_threads=2 / sliced_threads=0 / nr=0 / decimate=1 / interlaced=0 / bluray_compat=0 / constrained_intra=0 / bframes=2 / b_pyramid=0 / b_adapt=1 / b_bias=0 / direct=1 / weightb=0 / open_gop=0 / weightp=0 / keyint=24 / keyint_min=13 / scenecut=40 / intra_refresh=0 / rc=abr / mbtree=0 / bitrate=15500 / ratetol=1.0 / qcomp=0.60 / qpmin=0 / qpmax=69 / qpstep=4 / ip_ratio=1.40 / pb_ratio=1.30 / aq=1:1.00
Default : Yes
Forced : No
Color range : Limited
Color primaries : BT.709
Transfer characteristics : BT.709
Matrix coefficients : BT.709

Audio
ID : 2
Format : DTS
Format/Info : Digital Theater Systems
Mode : 16
Format settings, Endianness : Big
Codec ID : A_DTS
Duration : 2 h 9 min
Bit rate mode : Constant
Bit rate : 1 509 kb/s
Channel(s) : 6 channels
Channel positions : Front: L C R, Side: L R, LFE
Sampling rate : 48.0 kHz
Frame rate : 93.750 FPS (512 spf)
Bit depth : 24 bits
Compression mode : Lossy
Stream size : 1.36 GiB (9%)
Language : English
Default : No
Forced : No

Text
ID : 3
Format : PGS
Muxing mode : zlib
Codec ID : S_HDMV/PGS
Codec ID/Info : Picture based subtitle format used on BDs/HD-DVDs
Duration : 2 h 8 min
Bit rate : 13.6 kb/s
Count of elements : 3390
Stream size : 12.5 MiB (0%)
Title : English-PGS
Language : English
Default : Yes
Forced : No

Menu
00:00:00.000 : en:(01)00:00:00:000
00:04:36.276 : en:(02)00:04:36:276
00:08:06.527 : en:(03)00:08:06:527
00:11:18.260 : en:(04)00:11:18:260
00:15:21.545 : en:(05)00:15:21:545
00:18:57.386 : en:(06)00:18:57:386
00:25:05.921 : en:(07)00:25:05:921
00:31:41.566 : en:(08)00:31:41:566
00:36:08.708 : en:(09)00:36:08:708
00:42:32.258 : en:(10)00:42:32:258
00:47:01.318 : en:(11)00:47:01:318
00:54:44.990 : en:(12)00:54:44:990
01:00:43.556 : en:(13)01:00:43:556
01:07:40.931 : en:(14)01:07:40:931
01:14:38.223 : en:(15)01:14:38:223
01:19:43.695 : en:(16)01:19:43:695
01:22:02.751 : en:(17)01:22:02:751
01:28:53.369 : en:(18)01:28:53:369
01:34:01.302 : en:(19)01:34:01:302
01:38:10.175 : en:(20)01:38:10:175
01:45:23.692 : en:(21)01:45:23:692
01:49:13.964 : en:(22)01:49:13:964
01:55:54.197 : en:(23)01:55:54:197
01:58:49.497 : en:(24)01:58:49:497
02:09:16.623 : en:(25)02:09:16:623





General
Unique ID : 195138942512150572369612106328750734229 (0x92CE64AD5816C377914B80200C98BB95)
Complete name : A:\Beauty.and.the.Beast.2017.1080p.3D.BluRay.Half-OU-FGT.mkv
Format : Matroska
Format version : Version 4 / Version 2
File size : 15.8 GiB
Duration : 2 h 9 min
Overall bit rate : 17.5 Mb/s
Encoded date : UTC 2017-06-15 08:32:51
Writing application : mkvmerge v8.3.0 ('Over the Horizon') 64bit
Writing library : libebml v1.3.1 + libmatroska v1.4.2

Video
ID : 1
Format : AVC
Format/Info : Advanced Video Codec
Format profile : High@L4.1
Format settings, CABAC : Yes
Format settings, ReFrames : 2 frames
Format settings, GOP : M=3, N=24
Codec ID : V_MPEG4/ISO/AVC
Duration : 2 h 9 min
Bit rate : 16.0 Mb/s
Width : 1 920 pixels
Height : 1 080 pixels
Display aspect ratio : 16:9
Frame rate mode : Constant
Frame rate : 23.976 (24000/1001) FPS
Color space : YUV
Chroma subsampling : 4:2:0
Bit depth : 8 bits
Scan type : Progressive
Bits/(Pixel*Frame) : 0.322
Stream size : 14.4 GiB (91%)
Writing library : x264 core 142
Encoding settings : cabac=1 / ref=1 / deblock=1:-1:-1 / analyse=0x3:0 / me=hex / subme=5 / psy=0 / mixed_ref=0 / me_range=16 / chroma_me=1 / trellis=0 / 8x8dct=1 / cqm=0 / deadzone=21,11 / fast_pskip=0 / chroma_qp_offset=0 / threads=8 / lookahead_threads=2 / sliced_threads=0 / nr=0 / decimate=1 / interlaced=0 / bluray_compat=0 / constrained_intra=0 / bframes=2 / b_pyramid=0 / b_adapt=1 / b_bias=0 / direct=1 / weightb=0 / open_gop=0 / weightp=0 / keyint=24 / keyint_min=13 / scenecut=40 / intra_refresh=0 / rc=abr / mbtree=0 / bitrate=16000 / ratetol=1.0 / qcomp=0.60 / qpmin=0 / qpmax=69 / qpstep=4 / ip_ratio=1.40 / pb_ratio=1.30 / aq=1:1.00
Default : Yes
Forced : No
Color range : Limited
Color primaries : BT.709
Transfer characteristics : BT.709
Matrix coefficients : BT.709

Audio
ID : 2
Format : DTS
Format/Info : Digital Theater Systems
Mode : 16
Format settings, Endianness : Big
Codec ID : A_DTS
Duration : 2 h 9 min
Bit rate mode : Constant
Bit rate : 1 509 kb/s
Channel(s) : 6 channels
Channel positions : Front: L C R, Side: L R, LFE
Sampling rate : 48.0 kHz
Frame rate : 93.750 FPS (512 spf)
Bit depth : 24 bits
Compression mode : Lossy
Stream size : 1.36 GiB (9%)
Language : English
Default : No
Forced : No

Text
ID : 3
Format : PGS
Muxing mode : zlib
Codec ID : S_HDMV/PGS
Codec ID/Info : Picture based subtitle format used on BDs/HD-DVDs
Duration : 2 h 8 min
Bit rate : 8 058 b/s
Count of elements : 3390
Stream size : 7.38 MiB (0%)
Title : English-PGS
Language : English
Default : Yes
Forced : No

Menu
00:00:00.000 : en:(01)00:00:00:000
00:04:36.276 : en:(02)00:04:36:276
00:08:06.527 : en:(03)00:08:06:527
00:11:18.260 : en:(04)00:11:18:260
00:15:21.545 : en:(05)00:15:21:545
00:18:57.386 : en:(06)00:18:57:386
00:25:05.921 : en:(07)00:25:05:921
00:31:41.566 : en:(08)00:31:41:566
00:36:08.708 : en:(09)00:36:08:708
00:42:32.258 : en:(10)00:42:32:258
00:47:01.318 : en:(11)00:47:01:318
00:54:44.990 : en:(12)00:54:44:990
01:00:43.556 : en:(13)01:00:43:556
01:07:40.931 : en:(14)01:07:40:931
01:14:38.223 : en:(15)01:14:38:223
01:19:43.695 : en:(16)01:19:43:695
01:22:02.751 : en:(17)01:22:02:751
01:28:53.369 : en:(18)01:28:53:369
01:34:01.302 : en:(19)01:34:01:302
01:38:10.175 : en:(20)01:38:10:175
01:45:23.692 : en:(21)01:45:23:692
01:49:13.964 : en:(22)01:49:13:964
01:55:54.197 : en:(23)01:55:54:197
01:58:49.497 : en:(24)01:58:49:497
02:09:16.623 : en:(25)02:09:16:623




Screenshots BDRip HSBS

Beauty and the Beast (2017) [3D]

Beauty and the Beast (2017) [3D]

Beauty and the Beast (2017) [3D]


Screenshots BDRip HOU

Beauty and the Beast (2017) [3D]

Beauty and the Beast (2017) [3D]

Beauty and the Beast (2017) [3D]