Tags
Language
Tags

Beauty and the Beast (2017)

Posted By: Without
Beauty and the Beast (2017)

Beauty and the Beast (2017)
WEBRip | AVI | 720x304 | XviD@1400 kb/s | English AC3@192 kb/s
Subs: None | 2 channels | 2 h 4 min | 1.38 GB
WEBRip 720p | MKV | 1280x528 | AVC@2827 kb/s | English AC3@192 kb/s
Subs: None | 2 channels | 2 h 4 min | 2.61 GB
WEBRip 1080p | MKV | 1920x800 | AVC@4 000 kb/s | English AC3@192 kb/s
Subs: None | 2 channels | 2 h 4 min | 3.62 GB
WEBRip 2160p | MKV | 3840x1608 | AVC@6020 kb/s | English AAC@62 kb/s
Subs: Chinese HC | 2 channels | 2 h 4 min | 5.27 GB
Genre: Family, Fantasy, Musical

An adaptation of the fairy tale about a monstrous-looking prince and a young woman who fall in love.



General
Beauty.And.The.Beast.2017.HDRip.XviD.AC3-EVO\Beauty.And.The.Beast.2017.HDRip.XviD.AC3-EVO.avi
Format : AVI
Format/Info : Audio Video Interleave
Format profile : OpenDML
Format settings : rec
File size : 1.38 GiB
Duration : 2 h 4 min
Overall bit rate : 1 597 kb/s
Writing application : AVI-Mux GUI 1.17.8.3, Feb 16 201019:42:50

Video
ID : 0
Format : MPEG-4 Visual
Format profile : Advanced Simple@L5
Format settings, BVOP : 2
Format settings, QPel : No
Format settings, GMC : No warppoints
Format settings, Matrix : Default (H.263)
Muxing mode : Packed bitstream
Codec ID : XVID
Codec ID/Hint : XviD
Duration : 2 h 4 min
Bit rate : 1 400 kb/s
Width : 720 pixels
Height : 304 pixels
Display aspect ratio : 2.35:1
Frame rate : 25.000 FPS
Color space : YUV
Chroma subsampling : 4:2:0
Bit depth : 8 bits
Scan type : Progressive
Compression mode : Lossy
Bits/(Pixel*Frame) : 0.256
Stream size : 1.21 GiB (88%)
Writing library : XviD 66

Audio
ID : 1
Format : AC-3
Format/Info : Audio Coding 3
Mode extension : CM (complete main)
Format settings, Endianness : Big
Codec ID : 2000
Duration : 2 h 4 min
Bit rate mode : Constant
Bit rate : 192 kb/s
Channel(s) : 2 channels
Channel positions : Front: L R
Sampling rate : 48.0 kHz
Frame rate : 31.250 FPS (1536 spf)
Bit depth : 16 bits
Compression mode : Lossy
Stream size : 170 MiB (12%)
Alignment : Aligned on interleaves
Interleave, duration : 64 ms (1.60 video frames)
Interleave, preload duration : 192 ms
Title : ac3

General
Beauty.And.The.Beast.2017.720p.HDRip.X264.AC3-EVO\Beauty.And.The.Beast.2017.720p.HDRip.X264.AC3-EVO.mkv
Format : Matroska
Format version : Version 4 / Version 2
File size : 2.62 GiB
Duration : 2 h 4 min
Overall bit rate : 3 025 kb/s
Movie name : EVO
Encoded date : UTC 2017-05-16 23:58:17
Writing application : mkvmerge v6.7.0 ('Back to the Ground') 64bit built on Jan 8 2014 15:10:52
Writing library : libebml v1.3.0 + libmatroska v1.4.1

Video
ID : 1
Format : AVC
Format/Info : Advanced Video Codec
Format profile : High@L4.1
Format settings, CABAC : Yes
Format settings, ReFrames : 4 frames
Codec ID : V_MPEG4/ISO/AVC
Duration : 2 h 4 min
Bit rate : 2 827 kb/s
Width : 1 280 pixels
Height : 528 pixels
Display aspect ratio : 2.40:1
Frame rate mode : Constant
Frame rate : 25.000 FPS
Color space : YUV
Chroma subsampling : 4:2:0
Bit depth : 8 bits
Scan type : Progressive
Bits/(Pixel*Frame) : 0.167
Stream size : 2.40 GiB (92%)
Writing library : x264 core 142 r2479 dd79a61
Encoding settings : cabac=1 / ref=1 / deblock=1:0:0 / analyse=0x3:0x113 / me=hex / subme=2 / psy=1 / psy_rd=1.00:0.00 / mixed_ref=0 / me_range=16 / chroma_me=1 / trellis=0 / 8x8dct=1 / cqm=0 / deadzone=21,11 / fast_pskip=1 / chroma_qp_offset=0 / threads=12 / lookahead_threads=4 / sliced_threads=0 / nr=0 / decimate=1 / interlaced=0 / bluray_compat=0 / constrained_intra=0 / bframes=3 / b_pyramid=2 / b_adapt=1 / b_bias=0 / direct=1 / weightb=1 / open_gop=0 / weightp=1 / keyint=250 / keyint_min=25 / scenecut=40 / intra_refresh=0 / rc_lookahead=10 / rc=abr / mbtree=1 / bitrate=2827 / ratetol=1.0 / qcomp=0.60 / qpmin=0 / qpmax=69 / qpstep=4 / vbv_maxrate=62500 / vbv_bufsize=78125 / nal_hrd=none / filler=0 / ip_ratio=1.40 / aq=1:1.00
Default : Yes
Forced : No
Color range : Limited
Color primaries : BT.709
Transfer characteristics : BT.709
Matrix coefficients : BT.709

Audio
ID : 2
Format : AC-3
Format/Info : Audio Coding 3
Mode extension : CM (complete main)
Format settings, Endianness : Big
Codec ID : A_AC3
Duration : 2 h 4 min
Bit rate mode : Constant
Bit rate : 192 kb/s
Channel(s) : 2 channels
Channel positions : Front: L R
Sampling rate : 48.0 kHz
Frame rate : 31.250 FPS (1536 spf)
Bit depth : 16 bits
Compression mode : Lossy
Delay relative to video : -5 ms
Stream size : 170 MiB (6%)
Title : Stereo
Language : English
Default : Yes
Forced : No

General
Beauty.And.The.Beast.2017.1080p.HDRip.X264.AC3-EVO\Beauty.And.The.Beast.2017.1080p.HDRip.X264.AC3-EVO.mkv
Format : Matroska
Format version : Version 4 / Version 2
File size : 3.63 GiB
Duration : 2 h 4 min
Overall bit rate : 4 186 kb/s
Movie name : EVO
Encoded date : UTC 2017-05-17 01:18:00
Writing application : mkvmerge v6.7.0 ('Back to the Ground') 64bit built on Jan 8 2014 15:10:52
Writing library : libebml v1.3.0 + libmatroska v1.4.1

Video
ID : 1
Format : AVC
Format/Info : Advanced Video Codec
Format profile : High@L4.1
Format settings, CABAC : Yes
Format settings, ReFrames : 4 frames
Codec ID : V_MPEG4/ISO/AVC
Duration : 2 h 4 min
Bit rate : 4 000 kb/s
Width : 1 920 pixels
Height : 800 pixels
Display aspect ratio : 2.40:1
Original display aspect ratio : 2.40:1
Frame rate mode : Constant
Frame rate : 25.000 FPS
Color space : YUV
Chroma subsampling : 4:2:0
Bit depth : 8 bits
Scan type : Progressive
Bits/(Pixel*Frame) : 0.104
Stream size : 3.39 GiB (93%)
Writing library : x264 core 142 r2479 dd79a61
Encoding settings : cabac=1 / ref=1 / deblock=1:0:0 / analyse=0x3:0x113 / me=hex / subme=2 / psy=1 / psy_rd=1.00:0.00 / mixed_ref=0 / me_range=16 / chroma_me=1 / trellis=0 / 8x8dct=1 / cqm=0 / deadzone=21,11 / fast_pskip=1 / chroma_qp_offset=0 / threads=12 / lookahead_threads=4 / sliced_threads=0 / nr=0 / decimate=1 / interlaced=0 / bluray_compat=0 / constrained_intra=0 / bframes=3 / b_pyramid=2 / b_adapt=1 / b_bias=0 / direct=1 / weightb=1 / open_gop=0 / weightp=1 / keyint=250 / keyint_min=25 / scenecut=40 / intra_refresh=0 / rc_lookahead=10 / rc=abr / mbtree=1 / bitrate=4000 / ratetol=1.0 / qcomp=0.60 / qpmin=0 / qpmax=69 / qpstep=4 / vbv_maxrate=62500 / vbv_bufsize=78125 / nal_hrd=none / filler=0 / ip_ratio=1.40 / aq=1:1.00
Default : Yes
Forced : No
Color range : Limited
Color primaries : BT.709
Transfer characteristics : BT.709
Matrix coefficients : BT.709

Audio
ID : 2
Format : AC-3
Format/Info : Audio Coding 3
Mode extension : CM (complete main)
Format settings, Endianness : Big
Codec ID : A_AC3
Duration : 2 h 4 min
Bit rate mode : Constant
Bit rate : 192 kb/s
Channel(s) : 2 channels
Channel positions : Front: L R
Sampling rate : 48.0 kHz
Frame rate : 31.250 FPS (1536 spf)
Bit depth : 16 bits
Compression mode : Lossy
Delay relative to video : -5 ms
Stream size : 170 MiB (5%)
Title : Stereo
Language : English
Default : Yes
Forced : No

General
Beauty.and.the.Beast.2017.2160p.HC.WEB-DL.H264.AAC.mkv
Format : Matroska
Format version : Version 4 / Version 2
File size : 5.27 GiB
Duration : 2 h 4 min
Overall bit rate : 6 086 kb/s
Encoded date : UTC 2017-05-16 16:34:59
Writing application : mkvmerge v6.5.0 ('Isn't she lovely') built on Oct 20 2013 12:50:05
Writing library : libebml v1.3.0 + libmatroska v1.4.1

Video
ID : 1
Format : AVC
Format/Info : Advanced Video Codec
Format profile : High@L5.1
Format settings, CABAC : Yes
Format settings, ReFrames : 3 frames
Codec ID : V_MPEG4/ISO/AVC
Duration : 2 h 4 min
Width : 3 840 pixels
Height : 1 608 pixels
Display aspect ratio : 2.40:1
Frame rate mode : Constant
Frame rate : 25.000 FPS
Color space : YUV
Chroma subsampling : 4:2:0
Bit depth : 8 bits
Scan type : Progressive
Writing library : qiyi.com vtc-test
Default : Yes
Forced : No
Color range : Limited
Color primaries : BT.709
Transfer characteristics : BT.709
Matrix coefficients : BT.709

Audio
ID : 2
Format : AAC
Format/Info : Advanced Audio Codec
Format profile : HE-AAC / LC
Codec ID : A_AAC
Duration : 2 h 4 min
Channel(s) : 2 channels
Channel positions : Front: L R
Sampling rate : 44.1 kHz / 22.05 kHz
Frame rate : 21.533 FPS (1024 spf)
Compression mode : Lossy
Default : Yes
Forced : No


WEBRip Screenshots

Beauty and the Beast (2017)

Beauty and the Beast (2017)

Beauty and the Beast (2017)


WEBRip 720p Screenshots

Beauty and the Beast (2017)

Beauty and the Beast (2017)

Beauty and the Beast (2017)


WEBRip 1080p Screenshots

Beauty and the Beast (2017)

Beauty and the Beast (2017)

Beauty and the Beast (2017)


WEBRip 2160p Screenshots

Beauty and the Beast (2017)

Beauty and the Beast (2017)

Beauty and the Beast (2017)


Come Visit My Blog (•‿•)