Subcategories

Being Ginger (2013)

Posted By: Tutorial
Being Ginger (2013)

Being Ginger (2013)
WEB-DL | 1920 x 1080 | .MKV/AVC @ 13.4 Mbps | 1 h 8 min | 6.52 GB
Audio: English E-AC-3 224 Kbps, 2 channels | Subs: English
Genre: Documentary

The story of one redhead's attempt to regain his self-confidence.
Director: Scott P. Harris
More info: IMDB

General
Unique ID : 178335100964260104705545916946058649610 (0x862A1752DE9AB5B399CBEB1C7E15200A)
Complete name : Being.Ginger.2013.mkv
Format : Matroska
Format version : Version 4 / Version 2
File size : 6.52 GiB
Duration : 1 h 8 min
Overall bit rate mode : Variable
Overall bit rate : 13.6 Mb/s
Movie name : Being.Ginger.2013.1080p.AMZN.WEB-DL.DDP2.0.H.264-V3T0
Encoded date : UTC 2017-10-04 18:11:24
Writing application : mkvmerge v16.0.0 ('Protest') 64-bit
Writing library : libebml v1.3.5 + libmatroska v1.4.8

Video
ID : 1
Format : AVC
Format/Info : Advanced Video Codec
Format profile : High@L4
Format settings, CABAC : Yes
Format settings, ReFrames : 4 frames
Codec ID : V_MPEG4/ISO/AVC
Duration : 1 h 8 min
Bit rate mode : Variable
Bit rate : 13.4 Mb/s
Maximum bit rate : 15.0 Mb/s
Width : 1 920 pixels
Height : 1 080 pixels
Display aspect ratio : 16:9
Frame rate mode : Constant
Frame rate : 25.000 FPS
Color space : YUV
Chroma subsampling : 4:2:0
Bit depth : 8 bits
Scan type : Progressive
Bits/(Pixel*Frame) : 0.258
Stream size : 6.41 GiB (98%)
Title : Being.Ginger.2013.1080p.AMZN.WEB-DL.DDP2.0.H.264-V3T0
Writing library : x264 core 148 r2623 d5b2374
Encoding settings : cabac=1 / ref=4 / deblock=1:-1:-1 / analyse=0x3:0x133 / me=umh / subme=9 / psy=1 / psy_rd=1.00:0.15 / mixed_ref=1 / me_range=24 / chroma_me=1 / trellis=2 / 8x8dct=1 / cqm=0 / deadzone=21,11 / fast_pskip=1 / chroma_qp_offset=-3 / threads=34 / lookahead_threads=5 / sliced_threads=0 / nr=150 / decimate=1 / interlaced=0 / bluray_compat=0 / constrained_intra=0 / bframes=8 / b_pyramid=2 / b_adapt=2 / b_bias=0 / direct=3 / weightb=1 / open_gop=0 / weightp=2 / keyint=125 / keyint_min=63 / scenecut=0 / intra_refresh=0 / rc_lookahead=125 / rc=crf / mbtree=1 / crf=18.0 / qcomp=0.60 / qpmin=0 / qpmax=69 / qpstep=4 / vbv_maxrate=15000 / vbv_bufsize=31250 / crf_max=0.0 / nal_hrd=vbr / filler=0 / ip_ratio=1.40 / aq=3:1.00
Default : Yes
Forced : No
Color range : Limited
Color primaries : BT.709
Transfer characteristics : BT.709
Matrix coefficients : BT.709

Audio
ID : 2
Format : E-AC-3
Format/Info : Enhanced Audio Coding 3
Format settings, Endianness : Big
Codec ID : A_EAC3
Duration : 1 h 8 min
Bit rate mode : Constant
Bit rate : 224 kb/s
Channel(s) : 2 channels
Channel positions : Front: L R
Sampling rate : 48.0 kHz
Frame rate : 187.500 FPS (256 spf)
Compression mode : Lossy
Stream size : 110 MiB (2%)
Title : English
Language : English
Service kind : Complete Main
Default : Yes
Forced : No

Text
ID : 3
Format : UTF-8
Codec ID : S_TEXT/UTF8
Codec ID/Info : UTF-8 Plain Text
Duration : 1 h 8 min
Bit rate : 88 b/s
Count of elements : 1247
Stream size : 44.4 KiB (0%)
Title : SDH
Language : English
Default : No
Forced : No
Screenshots

Being Ginger (2013)

Being Ginger (2013)

Being Ginger (2013)

Welcome to my blog - daily update!

Being Ginger (2013)