Berlin Kidz 2 Fuck The System (2017)

Posted By: Tavaz
720p (HD) / WEBRip
Berlin Kidz 2 Fuck The System (2017)

Berlin Kidz 2 Fuck The System (2017)
WEBRip | MKV | 1280x582 | German | English subs | H264 @ 4286 kbps | AAC @ 235 kbps | 1 h 3 min | 2.00 GiB
Genre: Documentary

Mitte Dezember veröffentlicht die Berlin Kidz Graffiti Crew ihren neuen Film. Vier Jahre nach dem Film Berlin Kidz – 100% reines Adrenalin erscheint mit Fuck the System der zweite Film der legendären Berliner Graffiticrew, die für ihre spektakulären Aktionen bekannt sind.
Fuck the System is the second film by the legendary Berlin Graffiti crew known for their spectacular campaigns.

Berlin.Kidz.2.Fuck.The.System.2017.SUBBED.720p.WEBRip.x264-AEROHOLiCS.mkv (2.0 GB)



General
Unique ID : 32128633332497826224595755978842001077 (0x182BBFEC63132CBDF9C2F2157C714EB5)
Complete name : ./Berlin.Kidz.2.Fuck.The.System.2017.SUBBED.720p.WEBRip.x264-AEROHOLiCS.mkv
Format : Matroska
Format version : Version 4 / Version 2
File size : 2.00 GiB
Duration : 1 h 3 min
Overall bit rate : 4 524 kb/s
Movie name : Berlin.Kidz.2.Fuck.The.System.2017.SUBBED.720p.WEBRip.x264-AEROHOLiCS
Encoded date : UTC 2018-01-17 20:57:14
Writing application : mkvmerge v20.0.0 ('I Am The Sun') 64-bit
Writing library : libebml v1.3.5 + libmatroska v1.4.8

Video
ID : 1
Format : AVC
Format/Info : Advanced Video Codec
Format profile : High@L4.1
Format settings : CABAC / 5 Ref Frames
Format settings, CABAC : Yes
Format settings, RefFrames : 5 frames
Codec ID : V_MPEG4/ISO/AVC
Duration : 1 h 3 min
Bit rate : 4 286 kb/s
Width : 1 280 pixels
Height : 582 pixels
Display aspect ratio : 2.2:1
Frame rate mode : Constant
Frame rate : 23.976 (23976/1000) FPS
Original frame rate : 23.976 (24000/1001) FPS
Color space : YUV
Chroma subsampling : 4:2:0
Bit depth : 8 bits
Scan type : Progressive
Bits/(Pixel*Frame) : 0.240
Stream size : 1.90 GiB (95%)
Writing library : x264 core 152 r2851 ba24899
Encoding settings : cabac=1 / ref=5 / deblock=1:0:0 / analyse=0x3:0x113 / me=hex / subme=8 / psy=1 / psy_rd=1.00:0.00 / mixed_ref=1 / me_range=16 / chroma_me=1 / trellis=2 / 8x8dct=1 / cqm=0 / deadzone=21,11 / fast_pskip=1 / chroma_qp_offset=-2 / threads=6 / lookahead_threads=1 / sliced_threads=0 / nr=0 / decimate=1 / interlaced=0 / bluray_compat=0 / constrained_intra=0 / bframes=3 / b_pyramid=2 / b_adapt=1 / b_bias=0 / direct=3 / weightb=1 / open_gop=0 / weightp=2 / keyint=240 / keyint_min=24 / scenecut=40 / intra_refresh=0 / rc_lookahead=50 / rc=crf / mbtree=1 / crf=18.0 / qcomp=0.60 / qpmin=0 / qpmax=69 / qpstep=4 / ip_ratio=1.40 / aq=1:0.70
Language : German
Default : Yes
Forced : No
Color range : Limited
Matrix coefficients : BT.709

Audio
ID : 2
Format : AAC
Format/Info : Advanced Audio Codec
Format profile : LC
Codec ID : A_AAC-2
Duration : 1 h 3 min
Bit rate : 235 kb/s
Channel(s) : 2 channels
Channel positions : Front: L R
Sampling rate : 48.0 kHz
Frame rate : 46.875 FPS (1024 SPF)
Compression mode : Lossy
Stream size : 107 MiB (5%)
Language : German
Default : Yes
Forced : No





Berlin Kidz 2 Fuck The System (2017)


Berlin Kidz 2 Fuck The System (2017)


Berlin Kidz 2 Fuck The System (2017)


Berlin Kidz 2 Fuck The System (2017)


Berlin Kidz 2 Fuck The System (2017)