Tags
Language
Tags

Berlin Symphony of a Great City / Berlin: Die Sinfonie der Grosstadt (1927)

Posted By: Without
1080p (FullHD) / BDRip IMDb
Berlin Symphony of a Great City / Berlin: Die Sinfonie der Grosstadt (1927)

Berlin Symphony of a Great City / Berlin: Die Sinfonie der Grosstadt (1927)
BDRip 720p | MKV | 992x720 | AVC@4925 kb/s | German (Deutsch) FLAC@1167 kb/s (2 ch)
Subs: English | 1 h 2 min | 2.65 GB
BDRip 1080p | MKV | 1488x1080 | AVC@8894 kb/s | German (Deutsch) FLAC@1167 kb/s (2 ch)
Subs: English | 1 h 2 min | 4.37 GB
Genre: Documentary

A train speeds through the country on its way to Berlin, then gradually slows down as it pulls into the station. It is very early in the morning, about 5:00 AM, and the great city is mostly quiet. But before long there are some signs of activity, and a few early risers are to be seen on the streets. Soon the new day is well underway - it's just a typical day in Berlin, but a day full of life and energy.



The film has no narration, there is only the music.

General
berlin.symphony.of.a.great.city.1927.720p.bluray.x264-usury.mkv
Format : Matroska
Format version : Version 4 / Version 2
File size : 2.65 GiB
Duration : 1 h 2 min
Overall bit rate mode : Variable
Overall bit rate : 6 094 kb/s
Encoded date : UTC 2019-01-13 00:15:10
Writing application : mkvmerge v8.3.0 ('Over the Horizon') 64bit
Writing library : libebml v1.3.1 + libmatroska v1.4.2

Video
ID : 1
Format : AVC
Format/Info : Advanced Video Codec
Format profile : High@L4.1
Format settings, CABAC : Yes
Format settings, ReFrames : 5 frames
Codec ID : V_MPEG4/ISO/AVC
Duration : 1 h 2 min
Bit rate : 4 925 kb/s
Width : 992 pixels
Height : 720 pixels
Display aspect ratio : 1.378
Frame rate mode : Constant
Frame rate : 19.980 (20000/1001) FPS
Color space : YUV
Chroma subsampling : 4:2:0
Bit depth : 8 bits
Scan type : Progressive
Bits/(Pixel*Frame) : 0.345
Stream size : 2.14 GiB (81%)
Writing library : x264 core 155 r2901 7d0ff22
Encoding settings : cabac=1 / ref=5 / deblock=1:-3:-3 / analyse=0x3:0x133 / me=umh / subme=9 / psy=1 / psy_rd=1.00:0.00 / mixed_ref=1 / me_range=16 / chroma_me=1 / trellis=2 / 8x8dct=1 / cqm=0 / deadzone=21,11 / fast_pskip=0 / chroma_qp_offset=-2 / threads=48 / lookahead_threads=4 / sliced_threads=0 / nr=0 / decimate=1 / interlaced=0 / bluray_compat=0 / constrained_intra=0 / bframes=3 / b_pyramid=2 / b_adapt=1 / b_bias=0 / direct=3 / weightb=1 / open_gop=0 / weightp=2 / keyint=200 / keyint_min=20 / scenecut=40 / intra_refresh=0 / rc_lookahead=50 / rc=2pass / mbtree=1 / bitrate=4925 / ratetol=1.0 / qcomp=0.60 / qpmin=0 / qpmax=69 / qpstep=4 / cplxblur=20.0 / qblur=0.5 / ip_ratio=1.40 / aq=1:1.00
Language : English
Default : Yes
Forced : No

Audio
ID : 2
Format : FLAC
Format/Info : Free Lossless Audio Codec
Codec ID : A_FLAC
Duration : 1 h 2 min
Bit rate mode : Variable
Bit rate : 1 167 kb/s
Channel(s) : 2 channels
Channel positions : Front: L R
Sampling rate : 48.0 kHz
Frame rate : 11.719 FPS (4096 spf)
Bit depth : 24 bits
Stream size : 519 MiB (19%)
Writing library : libFLAC 1.2.1 (UTC 2007-09-17)
Default : Yes
Forced : No

Text
ID : 3
Format : UTF-8
Codec ID : S_TEXT/UTF8
Codec ID/Info : UTF-8 Plain Text
Duration : 1 h 1 min
Bit rate : 0 b/s
Count of elements : 20
Stream size : 250 Bytes (0%)
Title : English forced
Language : English
Default : Yes
Forced : Yes

Menu
00:00:00.000 : en:00:00:00.000
00:07:55.100 : en:00:07:55.100
00:15:05.196 : en:00:15:05.196
00:23:47.843 : en:00:23:47.843
00:36:07.374 : en:00:36:07.374
00:52:31.357 : en:00:52:31.357


General
berlin.symphony.of.a.great.city.1927.1080p.bluray.x264-usury.mkv
Format : Matroska
Format version : Version 4 / Version 2
File size : 4.37 GiB
Duration : 1 h 2 min
Overall bit rate mode : Variable
Overall bit rate : 10.1 Mb/s
Encoded date : UTC 2019-01-13 01:45:38
Writing application : mkvmerge v8.3.0 ('Over the Horizon') 64bit
Writing library : libebml v1.3.1 + libmatroska v1.4.2

Video
ID : 1
Format : AVC
Format/Info : Advanced Video Codec
Format profile : High@L4.1
Format settings, CABAC : Yes
Format settings, ReFrames : 4 frames
Codec ID : V_MPEG4/ISO/AVC
Duration : 1 h 2 min
Bit rate : 8 894 kb/s
Width : 1 488 pixels
Height : 1 080 pixels
Display aspect ratio : 1.378
Frame rate mode : Constant
Frame rate : 19.980 (20000/1001) FPS
Color space : YUV
Chroma subsampling : 4:2:0
Bit depth : 8 bits
Scan type : Progressive
Bits/(Pixel*Frame) : 0.277
Stream size : 3.86 GiB (88%)
Writing library : x264 core 155 r2901 7d0ff22
Encoding settings : cabac=1 / ref=4 / deblock=1:-3:-3 / analyse=0x3:0x133 / me=umh / subme=9 / psy=1 / psy_rd=1.00:0.00 / mixed_ref=1 / me_range=16 / chroma_me=1 / trellis=2 / 8x8dct=1 / cqm=0 / deadzone=21,11 / fast_pskip=0 / chroma_qp_offset=-2 / threads=24 / lookahead_threads=2 / sliced_threads=0 / nr=0 / decimate=1 / interlaced=0 / bluray_compat=0 / constrained_intra=0 / bframes=3 / b_pyramid=2 / b_adapt=1 / b_bias=0 / direct=3 / weightb=1 / open_gop=0 / weightp=2 / keyint=200 / keyint_min=20 / scenecut=40 / intra_refresh=0 / rc_lookahead=50 / rc=2pass / mbtree=1 / bitrate=8894 / ratetol=1.0 / qcomp=0.60 / qpmin=0 / qpmax=69 / qpstep=4 / cplxblur=20.0 / qblur=0.5 / ip_ratio=1.40 / aq=1:1.00
Language : English
Default : Yes
Forced : No

Audio
ID : 2
Format : FLAC
Format/Info : Free Lossless Audio Codec
Codec ID : A_FLAC
Duration : 1 h 2 min
Bit rate mode : Variable
Bit rate : 1 167 kb/s
Channel(s) : 2 channels
Channel positions : Front: L R
Sampling rate : 48.0 kHz
Frame rate : 11.719 FPS (4096 spf)
Bit depth : 24 bits
Stream size : 519 MiB (12%)
Writing library : libFLAC 1.2.1 (UTC 2007-09-17)
Default : Yes
Forced : No

Text
ID : 3
Format : UTF-8
Codec ID : S_TEXT/UTF8
Codec ID/Info : UTF-8 Plain Text
Duration : 1 h 1 min
Bit rate : 0 b/s
Count of elements : 20
Stream size : 250 Bytes (0%)
Title : English forced
Language : English
Default : Yes
Forced : Yes

Menu
00:00:00.000 : en:00:00:00.000
00:07:55.100 : en:00:07:55.100
00:15:05.196 : en:00:15:05.196
00:23:47.843 : en:00:23:47.843
00:36:07.374 : en:00:36:07.374
00:52:31.357 : en:00:52:31.357



BDRip 720p Screenshots

Berlin Symphony of a Great City / Berlin: Die Sinfonie der Grosstadt (1927)

Berlin Symphony of a Great City / Berlin: Die Sinfonie der Grosstadt (1927)

Berlin Symphony of a Great City / Berlin: Die Sinfonie der Grosstadt (1927)

Berlin Symphony of a Great City / Berlin: Die Sinfonie der Grosstadt (1927)

Berlin Symphony of a Great City / Berlin: Die Sinfonie der Grosstadt (1927)


BDRip 1080p Screenshots

Berlin Symphony of a Great City / Berlin: Die Sinfonie der Grosstadt (1927)

Berlin Symphony of a Great City / Berlin: Die Sinfonie der Grosstadt (1927)

Berlin Symphony of a Great City / Berlin: Die Sinfonie der Grosstadt (1927)

Berlin Symphony of a Great City / Berlin: Die Sinfonie der Grosstadt (1927)

Berlin Symphony of a Great City / Berlin: Die Sinfonie der Grosstadt (1927)


Come Visit My Blog (•‿•)