Tags
Language
Tags

Beside Bowie: The Mick Ronson Story (2017)

Posted By: notbanned
SD / HDTV IMDb
Beside Bowie: The Mick Ronson Story (2017)

Beside Bowie: The Mick Ronson Story (2017)
HDTV | 720x404 | .MP4/AVC @ 1040 Kbps | 1 h 41 min | 923 MiB
Audio: English AAC 221 kbps, 2 channels | Subs: None
Genre: Documentary

The story of Mick Ronson, the guitar great who helped to create the sound of David Bowie's hugely influential glam rock years.

General
Complete name : Beside.Bowie.The.Mick.Ronson.Story.2017.HDTV.mp4
Format : MPEG-4
Format profile : Base Media
Codec ID : isom (isom/avc1)
File size : 923 MiB
Duration : 1 h 41 min
Overall bit rate mode : Variable
Overall bit rate : 1 266 kb/s

Video
ID : 1
Format : AVC
Format/Info : Advanced Video Codec
Format profile : Main@L4
Format settings, CABAC : Yes
Format settings, ReFrames : 4 frames
Codec ID : avc1
Codec ID/Info : Advanced Video Coding
Duration : 1 h 41 min
Bit rate : 1 040 kb/s
Maximum bit rate : 9 169 kb/s
Width : 720 pixels
Height : 404 pixels
Display aspect ratio : 16:9
Frame rate mode : Constant
Frame rate : 25.000 FPS
Color space : YUV
Chroma subsampling : 4:2:0
Bit depth : 8 bits
Scan type : Progressive
Bits/(Pixel*Frame) : 0.143
Stream size : 759 MiB (82%)
Encoding settings : cabac=1 / ref=1 / deblock=1:0:0 / analyse=0x1:0x111 / me=hex / subme=2 / psy=1 / psy_rd=1.00:0.00 / mixed_ref=0 / me_range=16 / chroma_me=1 / trellis=0 / 8x8dct=0 / cqm=0 / deadzone=21,11 / fast_pskip=1 / chroma_qp_offset=0 / threads=9 / lookahead_threads=3 / sliced_threads=0 / nr=0 / decimate=1 / interlaced=0 / bluray_compat=0 / constrained_intra=0 / bframes=3 / b_pyramid=2 / b_adapt=1 / b_bias=0 / direct=1 / weightb=1 / open_gop=0 / weightp=1 / keyint=250 / keyint_min=25 / scenecut=40 / intra_refresh=0 / rc_lookahead=10 / rc=crf / mbtree=1 / crf=19.0 / qcomp=0.60 / qpmin=0 / qpmax=69 / qpstep=4 / vbv_maxrate=20000 / vbv_bufsize=25000 / crf_max=0.0 / nal_hrd=none / filler=0 / ip_ratio=1.40 / aq=1:1.00
Encoded date : UTC 2018-01-18 03:08:06
Tagged date : UTC 2018-01-18 03:08:35
Color range : Limited
Color primaries : BT.709
Transfer characteristics : BT.709
Matrix coefficients : BT.709

Audio
ID : 2
Format : AAC
Format/Info : Advanced Audio Codec
Format profile : LC
Codec ID : 40
Duration : 1 h 41 min
Bit rate mode : Variable
Bit rate : 221 kb/s
Maximum bit rate : 227 kb/s
Channel(s) : 2 channels
Channel positions : Front: L R
Sampling rate : 48.0 kHz
Frame rate : 46.875 FPS (1024 spf)
Compression mode : Lossy
Stream size : 161 MiB (17%)
Encoded date : UTC 2018-01-18 03:08:25
Tagged date : UTC 2018-01-18 03:08:35


Screenshots:

Beside Bowie: The Mick Ronson Story (2017)

Beside Bowie: The Mick Ronson Story (2017)

Beside Bowie: The Mick Ronson Story (2017)

Beside Bowie: The Mick Ronson Story (2017)