Tags
Language
Tags

Beside Bowie: The Mick Ronson Story (2017)

Posted By: Without
1080p (FullHD) / WEB-DL IMDb
Beside Bowie: The Mick Ronson Story (2017)

Beside Bowie: The Mick Ronson Story (2017)
WEB-DL 1080p | MKV | 1920x1080 | AVC@10.3 Mb/s | English AC3@224 kb/s
Subs: English | 2 channels | 1 h 39 min | 7.32 GB
Genre: Documentary

The story of Mick Ronson, the guitar great who helped to create the sound of David Bowie's hugely influential glam rock years.



General
Beside.Bowie.The.Mick.Ronson.Story.2017.1080p.Amazon.WEB-DL.DD2.0.H.264-QOQ.mkv
Format : Matroska
Format version : Version 4 / Version 2
File size : 7.32 GiB
Duration : 1 h 39 min
Overall bit rate mode : Variable
Overall bit rate : 10.5 Mb/s
Encoded date : UTC 2018-01-29 20:32:29
Writing application : mkvmerge v13.0.0 ('The Juggler') 64bit
Writing library : libebml v1.3.4 + libmatroska v1.4.5

Video
ID : 1
Format : AVC
Format/Info : Advanced Video Codec
Format profile : High@L4
Format settings, CABAC : Yes
Format settings, ReFrames : 4 frames
Codec ID : V_MPEG4/ISO/AVC
Duration : 1 h 39 min
Bit rate mode : Variable
Bit rate : 10.3 Mb/s
Maximum bit rate : 15.0 Mb/s
Width : 1 920 pixels
Height : 1 080 pixels
Display aspect ratio : 16:9
Frame rate mode : Constant
Frame rate : 25.000 FPS
Color space : YUV
Chroma subsampling : 4:2:0
Bit depth : 8 bits
Scan type : Progressive
Bits/(Pixel*Frame) : 0.198
Stream size : 7.17 GiB (98%)
Default : Yes
Forced : No
Color range : Limited
Color primaries : BT.709
Transfer characteristics : BT.709
Matrix coefficients : BT.709

Audio
ID : 2
Format : E-AC-3
Format/Info : Enhanced Audio Coding 3
Format settings, Endianness : Big
Codec ID : A_EAC3
Duration : 1 h 39 min
Bit rate mode : Constant
Bit rate : 224 kb/s
Channel(s) : 2 channels
Channel positions : Front: L R
Sampling rate : 48.0 kHz
Frame rate : 187.500 FPS (256 spf)
Compression mode : Lossy
Stream size : 160 MiB (2%)
Language : English
Default : Yes
Forced : No

Text #1
ID : 3
Format : UTF-8
Codec ID : S_TEXT/UTF8
Codec ID/Info : UTF-8 Plain Text
Duration : 1 h 39 min
Bit rate : 113 b/s
Count of elements : 1734
Stream size : 82.4 KiB (0%)
Language : English
Default : No
Forced : No

Text #2
ID : 4
Format : UTF-8
Codec ID : S_TEXT/UTF8
Codec ID/Info : UTF-8 Plain Text
Duration : 1 h 39 min
Bit rate : 113 b/s
Count of elements : 1767
Stream size : 83.3 KiB (0%)
Title : SDH
Language : English
Default : No
Forced : No


WEB-DL 1080p Screenshots

Beside Bowie: The Mick Ronson Story (2017)

Beside 			  		   	  			     	 			   		  	   		  		  		  	   	 			   		  		  			     	 			   		  	   		   	  		 	  			 Bowie: The Mick Ronson Story (2017)

Beside Bowie: The Mick Ronson Story (2017)

Beside Bowie: The Mick Ronson Story (2017)

Beside Bowie: The Mick Ronson Story (2017)


Come Visit My Blog (•‿•)