Subcategories

Bettie Page Reveals All (2012)

Posted By: notbanned
Bettie Page Reveals All (2012)

Bettie Page Reveals All (2012)
BRRip | 720x400 | .AVI/XviD @ 1588 Kbps | 1h 41mn | 1.27 GiB
Audio: English MP3 192 kbps, 2 channels | Subs: None
Genre: Documentary

With a natural photogenic poise and a vivaciously innocent risqué flair, there never was a pinup model like Bettie Page. Through Page's own words and interviews with her closest associates, we explore her extraordinary life growing up in a troubled childhood until she found a wild career as the Queen of the Pin-up Girls. In doing so, Page would challenge the paranoid sexual repression of the 1950s with uncommon grace until she walked away at the peak of her career. We also follow her quiet troubled later years struggling with unhappy marriages and mental illness that threaten to consume her even as she found a higher faith. Despite those challenges, Page's popularity would rise again in a more accepting time to become a celebrated icon of fearless sexuality and beauty.
More info


General
Complete name : Bettie.Page.Reveals.All.2012.BRRip.avi
Format : AVI
Format/Info : Audio Video Interleave
Format profile : OpenDML
File size : 1.27 GiB
Duration : 1h 41mn
Overall bit rate : 1 795 Kbps

Video
ID : 0
Format : MPEG-4 Visual
Format profile : Simple@L5
Format settings, BVOP : No
Format settings, QPel : No
Format settings, GMC : No warppoints
Format settings, Matrix : Default (H.263)
Codec ID : XVID
Codec ID/Hint : XviD
Duration : 1h 41mn
Bit rate : 1 588 Kbps
Width : 720 pixels
Height : 400 pixels
Display aspect ratio : 16:9
Frame rate : 23.976 fps
Color space : YUV
Chroma subsampling : 4:2:0
Bit depth : 8 bits
Scan type : Progressive
Compression mode : Lossy
Bits/(Pixel*Frame) : 0.230
Stream size : 1.13 GiB (88%)

Audio
ID : 1
Format : MPEG Audio
Format version : Version 1
Format profile : Layer 3
Mode : Joint stereo
Mode extension : MS Stereo
Codec ID : 55
Codec ID/Hint : MP3
Duration : 1h 41mn
Bit rate mode : Constant
Bit rate : 192 Kbps
Channel(s) : 2 channels
Sampling rate : 48.0 KHz
Compression mode : Lossy
Stream size : 139 MiB (11%)
Alignment : Aligned on interleaves
Interleave, duration : 24 ms (0.58 video frame)
Interleave, preload duration : 24 ms


Screenshots:

Bettie Page Reveals All (2012)

Bettie Page Reveals All (2012)

Bettie Page Reveals All (2012)

Bettie Page Reveals All (2012)