Tags
Language
Tags

National Geographic Classics - Biblical Mysteries (2006 - 2012)

Posted By: Tutorial
SD / DVDRip
National Geographic Classics - Biblical Mysteries (2006 - 2012)

National Geographic Classics - Biblical Mysteries (2006 - 2012)
DVDRip | 1024x576 | .MP4/AVC @ 2494 Kbps | 5x~45min | English AAC 160 Kbps, 2 channels | 4.32 GB
Genre: Documentary, History

Travel back in time with National Geographic to the Holy Land to explore some of the Bible’s most intriguing mysteries. From the mysterious lost stories of Jesus to the greatest escape in history, National Geographic examines the fundamental questions surrounding the ancient texts to shed new light on old mysteries.

Part 1: Lost Cities of the Bible (2006)
They're some of the most chilling stories in the Bible: tales of legendary cities destroyed by the hand of God. Are they truth or are they fiction?

Part 2: Secret Lives of Jesus (2006)
Fifteen hundred years ago, someone buried ancient writings that told strange and unconventional stories about Jesus of Nazareth—tales considered the height of heresy. Discovered within the last century, these texts invite more questions than answers. Secret Lives of Jesus examines these mysterious lost stories of Christ, and other apocryphal texts, exploring the fundamental questions surrounding the texts.

Part 3: Secret Lives of the Apostles (2012)

In a mere three or four decades, the seeds of a global religion spread across the most powerful empire on Earth. In an age with no internet, no mass media, no planes, trains or fossil fuel—how did it happen? NGC investigates the mysterious decades following Jesus' death, and the group of 12 common men, who sacrificed everything to spread Jesus' message.

Part 4: Exodus Revealed (2008)
In the book of Exodus, Moses triggers a series of terrible plagues on Egypt and parts the Red Sea to lead the enslaved Israelites to freedom. Are there any scientific explanations for such strange events?

Part 5: Search for the Head of John the Baptist (2012)
It is potentially one of the greatest archaeological discoveries in the history of Christianity, the ruins of one of the oldest monasteries in Europe. Here, under the location where the altar once stood, scientists have dug up an exquisite marble box holding what they believe to be the bones of John the Baptist, the man who baptized Jesus. If the date of the bones lines up with the Bible's profile of John, could it finally solve the mystery of what happened to his remains after his beheading, 2,000 years ago?

Related Documentaries:
The Bible (2013)
BBC - Jesus: The Real Story (2001)
CNN - Finding Jesus: Faith Fact Forgery (2015)
National Geographic - The Jesus Mysteries (2014)
Discovery Channel - Secrets of Mary Magdalene (2006)
National Geographic - Deadly Journeys of the Apostles (2015)
National Geographic - The Ten Plagues of the Bible (2008)
History Channel - The Egyptian Book of the Dead (2006)
BBC - A History of Christianity (2009)
PBS - Jerusalem: Center of the World (2009)
BBC - Jerusalem: The Making of a Holy City (2012)

General
Complete name : Biblical.Mysteries.1of5.Lost.Cities.of.the.Bible.mp4
Format : MPEG-4
Format profile : Base Media
Codec ID : isom
File size : 870 MiB
Duration : 45mn 44s
Overall bit rate mode : Variable
Overall bit rate : 2 659 Kbps
Encoded date : UTC 2015-05-26 12:47:52
Tagged date : UTC 2015-05-26 12:47:52
Writing application : Lavf51.12.1

Video
ID : 1
Format : AVC
Format/Info : Advanced Video Codec
Format profile : Main@L3.1
Format settings, CABAC : Yes
Format settings, ReFrames : 1 frame
Format settings, GOP : M=1, N=12
Codec ID : avc1
Codec ID/Info : Advanced Video Coding
Duration : 45mn 44s
Bit rate : 2 494 Kbps
Width : 1 024 pixels
Height : 576 pixels
Display aspect ratio : 16:9
Frame rate mode : Constant
Frame rate : 29.970 fps
Color space : YUV
Chroma subsampling : 4:2:0
Bit depth : 8 bits
Scan type : Progressive
Bits/(Pixel*Frame) : 0.141
Stream size : 816 MiB (94%)
Encoded date : UTC 2015-05-26 12:47:52
Tagged date : UTC 2015-05-26 12:47:52

Audio
ID : 2
Format : AAC
Format/Info : Advanced Audio Codec
Format profile : LC
Codec ID : 40
Duration : 45mn 44s
Bit rate mode : Variable
Bit rate : 160 Kbps
Channel(s) : 2 channels
Channel positions : Front: L R
Sampling rate : 48.0 KHz
Compression mode : Lossy
Stream size : 52.3 MiB (6%)
Encoded date : UTC 2015-05-26 12:47:52
Tagged date : UTC 2015-05-26 12:47:52
Screenshots

National Geographic Classics - Biblical Mysteries (2006 - 2012)

National Geographic Classics - Biblical Mysteries (2006 - 2012)

National Geographic Classics - Biblical Mysteries (2006 - 2012)

National Geographic Classics - Biblical Mysteries (2006 - 2012)

National Geographic Classics - Biblical Mysteries (2006 - 2012)

Welcome to my blog - daily update!