Black Metal Veins (2012)

Posted By: vivid23
Black Metal Veins (2012)

Black Metal Veins (2012)
720p Bluray-rip | 1280x720 | MKV/x264 @ 4878 Kbps | 88mn | Audio: English AC3 448 kbps, 2 channels | Subs: None | 3.28 GB
Genre: Documentary

Black Metal Veins unflinchingly documents the dark realities of despair and morbid self annihilation surrounding the lives of five heroin junkies. The addicts' intertwining stories of pain, loss, sadness, and abandonment lead the viewer down the agonizing and hideous path of horrifying psychological and spiritual destruction as the grim disease of heroin addiction infects and decays the bodies and minds of five young people.

More info

Video
ID : 1
Format : AVC
Format/Info : Advanced Video Codec
Format profile : High@L4.1
Format settings, CABAC : Yes
Format settings, ReFrames : 5 frames
Codec ID : V_MPEG4/ISO/AVC
Duration : 1h 28mn
Bit rate : 4 878 Kbps
Width : 1 280 pixels
Height : 720 pixels
Display aspect ratio : 16:9
Frame rate : 29.970 fps
Color space : YUV
Chroma subsampling : 4:2:0
Bit depth : 8 bits
Scan type : Progressive
Bits/(Pixel*Frame) : 0.177
Stream size : 2.94 GiB (90%)
Writing library : x264 core 129 r2245 bc13772
Encoding settings : cabac=1 / ref=5 / deblock=1:0:0 / analyse=0x3:0x133 / me=umh / subme=8 / psy=1 / psy_rd=1.00:0.00 / mixed_ref=1 / me_range=16 / chroma_me=1 / trellis=1 / 8x8dct=1 / cqm=0 / deadzone=21,11 / fast_pskip=0 / chroma_qp_offset=-2 / threads=12 / lookahead_threads=2 / sliced_threads=0 / nr=0 / decimate=1 / interlaced=0 / bluray_compat=0 / constrained_intra=0 / bframes=3 / b_pyramid=2 / b_adapt=1 / b_bias=0 / direct=1 / weightb=1 / open_gop=0 / weightp=2 / keyint=250 / keyint_min=25 / scenecut=40 / intra_refresh=0 / rc_lookahead=40 / rc=2pass / mbtree=1 / bitrate=4878 / ratetol=1.0 / qcomp=0.60 / qpmin=0 / qpmax=69 / qpstep=4 / cplxblur=20.0 / qblur=0.5 / ip_ratio=1.40 / aq=1:1.00
Language : English

Audio
ID : 2
Format : AC-3
Format/Info : Audio Coding 3
Mode extension : CM (complete main)
Codec ID : A_AC3
Duration : 1h 28mn
Bit rate mode : Constant
Bit rate : 448 Kbps
Channel(s) : 2 channels
Channel positions : Front: L R
Sampling rate : 48.0 KHz
Bit depth : 16 bits
Compression mode : Lossy
Stream size : 282 MiB (8%)

Menu
00:00:00.000 : en:00:00:00.000
00:13:03.082 : en:00:13:03.082
00:30:16.381 : en:00:30:16.381
00:39:28.499 : en:00:39:28.499
00:49:28.032 : en:00:49:28.032
00:53:30.708 : en:00:53:30.708
01:00:00.630 : en:01:00:00.630
01:07:01.518 : en:01:07:01.518
01:11:17.340 : en:01:11:17.340
01:23:40.816 : en:01:23:40.816


Black Metal Veins (2012)

Black Metal Veins (2012)


Feel free to contact me when links are dead