PBS - The Untold Story of Black New Orleans (2008)

Posted By: vivid23
PBS - The Untold Story of Black New Orleans (2008)

PBS - The Untold Story of Black New Orleans (2008)
PDTV | 640x360 | AVI/XviD @ 1250 Kbps | 56mn | Audio: English MP3 192 kbps, 2 channels | Subs: None | 588 MB
Genre: Documentary

Faubourg Tremé: The Untold Story of Black New Orleans, documents the enduring legacy of one of the United States' oldest African American communities, an area just outside the French Quarter of New Orleans. Faubourg Tremé is considered the oldest black neighborhood in America, the origin of the southern civil rights movement and the birthplace of jazz.

A documentary film directed by Dawn Logsdon and co-directed and written by Lolis Eric Elie. Featuring a cast of local musicians, artists and writers, the film relates the history of New Orlean's Tremé neighborhood.

The film debuted at the Tribeca Film Festival in 2008. It won Best Documentary at the 2008 San Francisco Black Film Festival, and premiered on PBS on January 29, 2009.

More info

Video
ID : 0
Format : MPEG-4 Visual
Format profile : Advanced Simple@L5
Format settings, BVOP : No
Format settings, QPel : No
Format settings, GMC : No warppoints
Format settings, Matrix : Default (MPEG)
Codec ID : XVID
Codec ID/Hint : XviD
Duration : 56mn 40s
Bit rate : 1 250 Kbps
Width : 640 pixels
Height : 360 pixels
Display aspect ratio : 16:9
Frame rate : 25.000 fps
Color space : YUV
Chroma subsampling : 4:2:0
Bit depth : 8 bits
Scan type : Progressive
Compression mode : Lossy
Bits/(Pixel*Frame) : 0.217
Stream size : 507 MiB (86%)
Writing library : XviD 1.2.1 (UTC 2008-12-04)

Audio
ID : 1
Format : MPEG Audio
Format version : Version 1
Format profile : Layer 3
Codec ID : 55
Codec ID/Hint : MP3
Duration : 56mn 40s
Bit rate mode : Constant
Bit rate : 192 Kbps
Channel(s) : 2 channels
Sampling rate : 44.1 KHz
Compression mode : Lossy
Stream size : 77.8 MiB (13%)
Alignment : Split accross interleaves
Interleave, duration : 40 ms (1.00 video frame)


PBS - The Untold Story of Black New Orleans (2008)

PBS - The Untold Story of Black New Orleans (2008)


Feel free to contact me when links are dead