Tags
Language
Tags

Blade Runner (1982) [The Final Cut]

Posted By: Without
Blade Runner (1982) [The Final Cut]

Blade Runner (1982)
4K UHD Remux | MKV | 3840x2160 | HEVC@50.0 Mb/s | English Atmos / TrueHD@4336 kb/s Kbps (8 ch)
English AC3@448 Kbps (6 ch) + AC3@192 Kbps (2 ch) (Commentary) | 1 h 57 min | 45.8 GB
Subs: English, Arabic, Chinese, Czech, Danish, Dutch, Finnish, French, German, Hebrew
Italian, Japanese, Korean, Norwegian, Polish, Portuguese, Russian, Spanish, Swedish, Turkish
Genre: Sci-Fi, Thriller

A blade runner must pursue and try to terminate four replicants who stole a ship in space and have returned to Earth to find their creator.

IMDB - Top Rated Movies #147 | Nominated for 2 Oscars. Another 11 wins & 16 nominations.


General
Blade.Runner.1982.The.Final.Cut.UHD.BluRay.2160p.TrueHD.Atmos.7.1.HEVC.REMUX-FraMeSToR\Blade.Runner.1982.The.Final.Cut.UHD.BluRay.2160p.TrueHD.Atmos.7.1.HEVC.REMUX-FraMeSToR.mkv
Format : Matroska
Format version : Version 4 / Version 2
File size : 45.8 GiB
Duration : 1 h 57 min
Overall bit rate mode : Variable
Overall bit rate : 55.7 Mb/s
Movie name : Blade Runner 1982 The Final Cut 4K
Encoded date : UTC 2017-11-13 22:43:37
Writing application : mkvmerge v17.0.0 ('Be Ur Friend') 64-bit
Writing library : libebml v1.3.5 + libmatroska v1.4.8

Video
ID : 1
Format : HEVC
Format/Info : High Efficiency Video Coding
Format profile : Main 10@L5.1@High
Codec ID : V_MPEGH/ISO/HEVC
Duration : 1 h 57 min
Bit rate : 50.0 Mb/s
Width : 3 840 pixels
Height : 2 160 pixels
Display aspect ratio : 16:9
Frame rate mode : Constant
Frame rate : 23.976 (24000/1001) FPS
Color space : YUV
Chroma subsampling : 4:2:0 (Type 2)
Bit depth : 10 bits
Bits/(Pixel*Frame) : 0.251
Stream size : 41.0 GiB (90%)
Writing library : ATEME Titan File 3.8.3 (4.8.3.0)
Default : Yes
Forced : No
Color range : Limited
Color primaries : BT.2020
Transfer characteristics : SMPTE ST 2084
Matrix coefficients : BT.2020 non-constant
Mastering display color primaries : R: x=0.680000 y=0.320000, G: x=0.265000 y=0.690000, B: x=0.150000 y=0.060000, White point: x=0.312700 y=0.329000
Mastering display luminance : min: 0.0050 cd/m2, max: 4000.0000 cd/m2
Maximum Content Light Level : 1655 cd/m2
Maximum Frame-Average Light Level : 117 cd/m2

Audio #1
ID : 2
Format : Atmos / TrueHD
Codec ID : A_TRUEHD
Duration : 1 h 57 min
Bit rate mode : Variable
Bit rate : 4 336 kb/s
Maximum bit rate : 7 305 kb/s
Channel(s) : Object Based / 8 channels
Channel positions : Object Based / Front: L C R, Side: L R, Back: L R, LFE
Sampling rate : / 48.0 kHz
Frame rate : 1 200.000 FPS (40 spf)
Compression mode : Lossless
Stream size : 3.56 GiB (8%)
Title : TrueHD Atmos 7.1
Language : English
Default : Yes
Forced : No

Audio #2
ID : 3
Format : AC-3
Format/Info : Audio Coding 3
Mode extension : CM (complete main)
Format settings, Endianness : Big
Codec ID : A_AC3
Duration : 1 h 57 min
Bit rate mode : Constant
Bit rate : 448 kb/s
Channel(s) : 6 channels
Channel positions : Front: L C R, Side: L R, LFE
Sampling rate : 48.0 kHz
Frame rate : 31.250 FPS (1536 spf)
Bit depth : 16 bits
Compression mode : Lossy
Stream size : 377 MiB (1%)
Title : AC-3 5.1-EX
Language : English
Default : No
Forced : No

Audio #3
ID : 4
Format : AC-3
Format/Info : Audio Coding 3
Mode extension : CM (complete main)
Format settings, Endianness : Big
Codec ID : A_AC3
Duration : 1 h 57 min
Bit rate mode : Constant
Bit rate : 192 kb/s
Channel(s) : 2 channels
Channel positions : Front: L R
Sampling rate : 48.0 kHz
Frame rate : 31.250 FPS (1536 spf)
Bit depth : 16 bits
Compression mode : Lossy
Stream size : 161 MiB (0%)
Title : Commentary by director Ridley Scott
Language : English
Default : No
Forced : No

Audio #4
ID : 5
Format : AC-3
Format/Info : Audio Coding 3
Mode extension : CM (complete main)
Format settings, Endianness : Big
Codec ID : A_AC3
Duration : 1 h 57 min
Bit rate mode : Constant
Bit rate : 192 kb/s
Channel(s) : 2 channels
Channel positions : Front: L R
Sampling rate : 48.0 kHz
Frame rate : 31.250 FPS (1536 spf)
Bit depth : 16 bits
Compression mode : Lossy
Stream size : 161 MiB (0%)
Title : Commentary by Hampton Fancher, David Peoples, Michael Deely and Katherine Haber
Language : English
Default : No
Forced : No

Audio #5
ID : 6
Format : AC-3
Format/Info : Audio Coding 3
Mode extension : CM (complete main)
Format settings, Endianness : Big
Codec ID : A_AC3
Duration : 1 h 57 min
Bit rate mode : Constant
Bit rate : 192 kb/s
Channel(s) : 2 channels
Channel positions : Front: L R
Sampling rate : 48.0 kHz
Frame rate : 31.250 FPS (1536 spf)
Bit depth : 16 bits
Compression mode : Lossy
Stream size : 161 MiB (0%)
Title : Commentary by Syd Mead, G. Paull, David L. Snyder, Douglas Trumbull, Richard Yuricich and David Dryer
Language : English
Default : No
Forced : No

Text #1
ID : 7
Format : PGS
Codec ID : S_HDMV/PGS
Codec ID/Info : Picture based subtitle format used on BDs/HD-DVDs
Duration : 1 h 52 min
Bit rate : 16.6 kb/s
Count of elements : 1790
Stream size : 13.4 MiB (0%)
Title : English (SDH)
Language : English
Default : No
Forced : No

Text #2
ID : 8
Format : PGS
Codec ID : S_HDMV/PGS
Codec ID/Info : Picture based subtitle format used on BDs/HD-DVDs
Duration : 1 h 55 min
Bit rate : 8 737 b/s
Count of elements : 1646
Stream size : 7.21 MiB (0%)
Title : Arabic
Language : Arabic
Default : No
Forced : No

Text #3
ID : 9
Format : PGS
Codec ID : S_HDMV/PGS
Codec ID/Info : Picture based subtitle format used on BDs/HD-DVDs
Duration : 1 h 56 min
Bit rate : 13.6 kb/s
Count of elements : 1678
Stream size : 11.3 MiB (0%)
Title : Chinese (Simplified)
Language : Chinese
Default : No
Forced : No

Text #4
ID : 10
Format : PGS
Codec ID : S_HDMV/PGS
Codec ID/Info : Picture based subtitle format used on BDs/HD-DVDs
Duration : 1 h 56 min
Bit rate : 13.3 kb/s
Count of elements : 1576
Stream size : 11.1 MiB (0%)
Title : Chinese (Traditional)
Language : Chinese
Default : No
Forced : No

Text #5
ID : 11
Format : PGS
Codec ID : S_HDMV/PGS
Codec ID/Info : Picture based subtitle format used on BDs/HD-DVDs
Duration : 1 h 56 min
Bit rate : 13.1 kb/s
Count of elements : 1552
Stream size : 10.9 MiB (0%)
Title : Chinese (Cantonese)
Language : Chinese
Default : No
Forced : No

Text #6
ID : 12
Format : PGS
Codec ID : S_HDMV/PGS
Codec ID/Info : Picture based subtitle format used on BDs/HD-DVDs
Duration : 1 h 55 min
Bit rate : 14.1 kb/s
Count of elements : 1642
Stream size : 11.6 MiB (0%)
Title : Czech
Language : Czech
Default : No
Forced : No

Text #7
ID : 13
Format : PGS
Codec ID : S_HDMV/PGS
Codec ID/Info : Picture based subtitle format used on BDs/HD-DVDs
Duration : 1 h 55 min
Bit rate : 14.7 kb/s
Count of elements : 1522
Stream size : 12.1 MiB (0%)
Title : Danish
Language : Danish
Default : No
Forced : No

Text #8
ID : 14
Format : PGS
Codec ID : S_HDMV/PGS
Codec ID/Info : Picture based subtitle format used on BDs/HD-DVDs
Duration : 1 h 55 min
Bit rate : 12.9 kb/s
Count of elements : 1460
Stream size : 10.7 MiB (0%)
Title : Dutch
Language : Dutch
Default : No
Forced : No

Text #9
ID : 15
Format : PGS
Codec ID : S_HDMV/PGS
Codec ID/Info : Picture based subtitle format used on BDs/HD-DVDs
Duration : 1 h 55 min
Bit rate : 15.2 kb/s
Count of elements : 1654
Stream size : 12.6 MiB (0%)
Title : Finnish
Language : Finnish
Default : No
Forced : No

Text #10
ID : 16
Format : PGS
Codec ID : S_HDMV/PGS
Codec ID/Info : Picture based subtitle format used on BDs/HD-DVDs
Duration : 1 h 55 min
Bit rate : 13.1 kb/s
Count of elements : 1490
Stream size : 10.8 MiB (0%)
Title : French
Language : French
Default : No
Forced : No

Text #11
ID : 17
Format : PGS
Codec ID : S_HDMV/PGS
Codec ID/Info : Picture based subtitle format used on BDs/HD-DVDs
Duration : 1 h 55 min
Bit rate : 18.3 kb/s
Count of elements : 1792
Stream size : 15.1 MiB (0%)
Title : German (SDH)
Language : German
Default : No
Forced : No

Text #12
ID : 18
Format : PGS
Codec ID : S_HDMV/PGS
Codec ID/Info : Picture based subtitle format used on BDs/HD-DVDs
Duration : 1 h 56 min
Bit rate : 10.3 kb/s
Count of elements : 1588
Stream size : 8.63 MiB (0%)
Title : Hebrew
Language : Hebrew
Default : No
Forced : No

Text #13
ID : 19
Format : PGS
Codec ID : S_HDMV/PGS
Codec ID/Info : Picture based subtitle format used on BDs/HD-DVDs
Duration : 1 h 55 min
Bit rate : 17.5 kb/s
Count of elements : 1832
Stream size : 14.5 MiB (0%)
Title : Italian (SDH)
Language : Italian
Default : No
Forced : No

Text #14
ID : 20
Format : PGS
Codec ID : S_HDMV/PGS
Codec ID/Info : Picture based subtitle format used on BDs/HD-DVDs
Duration : 1 h 55 min
Bit rate : 9 179 b/s
Count of elements : 1312
Stream size : 7.56 MiB (0%)
Title : Japanese
Language : Japanese
Default : No
Forced : No

Text #15
ID : 21
Format : PGS
Codec ID : S_HDMV/PGS
Codec ID/Info : Picture based subtitle format used on BDs/HD-DVDs
Duration : 1 h 56 min
Bit rate : 9 967 b/s
Count of elements : 1650
Stream size : 8.32 MiB (0%)
Title : Korean
Language : Korean
Default : No
Forced : No

Text #16
ID : 22
Format : PGS
Codec ID : S_HDMV/PGS
Codec ID/Info : Picture based subtitle format used on BDs/HD-DVDs
Duration : 1 h 55 min
Bit rate : 13.4 kb/s
Count of elements : 1608
Stream size : 11.1 MiB (0%)
Title : Norwegian
Language : Norwegian
Default : No
Forced : No

Text #17
ID : 23
Format : PGS
Codec ID : S_HDMV/PGS
Codec ID/Info : Picture based subtitle format used on BDs/HD-DVDs
Duration : 1 h 56 min
Bit rate : 14.6 kb/s
Count of elements : 1648
Stream size : 12.2 MiB (0%)
Title : Polish
Language : Polish
Default : No
Forced : No

Text #18
ID : 24
Format : PGS
Codec ID : S_HDMV/PGS
Codec ID/Info : Picture based subtitle format used on BDs/HD-DVDs
Duration : 1 h 56 min
Bit rate : 14.2 kb/s
Count of elements : 1640
Stream size : 11.9 MiB (0%)
Title : Portuguese
Language : Portuguese
Default : No
Forced : No

Text #19
ID : 25
Format : PGS
Codec ID : S_HDMV/PGS
Codec ID/Info : Picture based subtitle format used on BDs/HD-DVDs
Duration : 1 h 56 min
Bit rate : 14.6 kb/s
Count of elements : 1586
Stream size : 12.2 MiB (0%)
Title : Portuguese (Brazilian)
Language : Portuguese
Default : No
Forced : No

Text #20
ID : 26
Format : PGS
Codec ID : S_HDMV/PGS
Codec ID/Info : Picture based subtitle format used on BDs/HD-DVDs
Duration : 1 h 56 min
Bit rate : 15.5 kb/s
Count of elements : 1688
Stream size : 13.0 MiB (0%)
Title : Russian
Language : Russian
Default : No
Forced : No

Text #21
ID : 27
Format : PGS
Codec ID : S_HDMV/PGS
Codec ID/Info : Picture based subtitle format used on BDs/HD-DVDs
Duration : 1 h 55 min
Bit rate : 13.1 kb/s
Count of elements : 1634
Stream size : 10.8 MiB (0%)
Title : Spanish (Castilian)
Language : Spanish
Default : No
Forced : No

Text #22
ID : 28
Format : PGS
Codec ID : S_HDMV/PGS
Codec ID/Info : Picture based subtitle format used on BDs/HD-DVDs
Duration : 1 h 55 min
Bit rate : 13.6 kb/s
Count of elements : 1482
Stream size : 11.2 MiB (0%)
Title : Spanish (Latin American)
Language : Spanish
Default : No
Forced : No

Text #23
ID : 29
Format : PGS
Codec ID : S_HDMV/PGS
Codec ID/Info : Picture based subtitle format used on BDs/HD-DVDs
Duration : 1 h 55 min
Bit rate : 13.5 kb/s
Count of elements : 1510
Stream size : 11.1 MiB (0%)
Title : Swedish
Language : Swedish
Default : No
Forced : No

Text #24
ID : 30
Format : PGS
Codec ID : S_HDMV/PGS
Codec ID/Info : Picture based subtitle format used on BDs/HD-DVDs
Duration : 1 h 55 min
Bit rate : 15.9 kb/s
Count of elements : 1630
Stream size : 13.1 MiB (0%)
Title : Turkish
Language : Turkish
Default : No
Forced : No

Menu
00:00:00.000 : en:Credits and Forward
00:02:58.178 : en:Eye on the City
00:04:31.980 : en:Leon's Emotional Response
00:07:26.112 : en:Street Scene; Interrupted Sushi
00:11:18.261 : en:The Old Blade Runner Magic
00:12:58.569 : en:The Replicants in Question
00:16:58.184 : en:Rachael; the Voight-Kampff Test
00:22:38.816 : en:Leon's Apartment
00:25:04.878 : en:Chew's Visitors
00:27:58.343 : en:If Only You Could See…
00:30:21.486 : en:A Visitor with Someone Else's Memories
00:36:19.177 : en:Pris Meets Sebastian
00:41:30.321 : en:Deckard's Dream
00:42:24.000 : en:Computer Photo Scan
00:45:56.337 : en:Manufactured Skin
00:48:44.463 : en:Miss Salome's Dressing Room
00:55:18.899 : en:Pursuing Zhora
00:57:27.277 : en:Retirement…Witnessed
00:59:44.998 : en:How Many to Go?
01:01:49.414 : en:Wake Up. Time to Die.
01:03:17.002 : en:I Am the Business. I Owe You One.
01:07:44.394 : en:The Real Thing?
01:12:39.522 : en:There's Only Two of Us Now.
01:16:13.527 : en:We Need You, Sebastian.
01:20:12.474 : en:The Right Moves
01:22:34.533 : en:The Prodigal Son Brings Death
01:27:07.514 : en:No Way to Treat a Friend
01:28:45.237 : en:Death Among the Menagerie
01:34:02.220 : en:Proud of Yourself, Little Man?
01:36:54.308 : en:Wounded Animals
01:41:12.316 : en:The Building Ledge
01:42:37.276 : en:The Roof
01:44:31.807 : en:To Live in Fear
01:45:56.267 : en:Like Tears in Rain. But Then Again, Who Does?
01:49:04.496 : en:Souvenir of Dreams
01:52:21.735 : en:End Credits


Screenshots

Blade Runner (1982) [The Final Cut]

Blade Runner (1982) [The Final Cut]

Blade Runner (1982) [The Final Cut]

Blade Runner (1982) [The Final Cut]

Blade Runner (1982) [The Final Cut]

Blade Runner (1982) [The Final Cut]


Come Visit My Blog (•‿•)