Bleeding Steel (2017)

Posted By: Without
1080p (FullHD) / WEB-DL IMDb
Bleeding Steel (2017)

Bleeding Steel (2017)
HDRip | AVI | 720x304 | XviD@1409 kb/s | English&Chinese AC3@384 kb/s
Subs: English (When needed) | 6 channels | 1 h 49 min | 1.39 GB
WEB-DL 1080p | MKV | 1912x796 | AVC@4478 kb/s | English&Chinese AC3@384 kb/s
Subs: English (When needed) | 6 channels | 1 h 49 min | 3.79 GB
Genre: Action, Sci-Fi, Thriller

A special force agent is assigned to protect a scientist and his creation from a sinister gang.



General
Bleeding Steel.2017.HDRip.XviD.AC3-EVO\Bleeding Steel.2017.HDRip.XviD.AC3-EVO.avi
Format : AVI
Format/Info : Audio Video Interleave
File size : 1.38 GiB
Duration : 1 h 49 min
Overall bit rate : 1 803 kb/s
Writing library : VirtualDub build 32593/release

Video
ID : 0
Format : MPEG-4 Visual
Format profile : Advanced Simple@L5
Format settings, BVOP : 2
Format settings, QPel : No
Format settings, GMC : No warppoints
Format settings, Matrix : Default (H.263)
Muxing mode : Packed bitstream
Codec ID : XVID
Codec ID/Hint : XviD
Duration : 1 h 49 min
Bit rate : 1 409 kb/s
Width : 720 pixels
Height : 304 pixels
Display aspect ratio : 2.35:1
Frame rate : 23.976 (24000/1001) FPS
Color space : YUV
Chroma subsampling : 4:2:0
Bit depth : 8 bits
Scan type : Progressive
Compression mode : Lossy
Bits/(Pixel*Frame) : 0.269
Stream size : 1.08 GiB (78%)
Writing library : XviD 66

Audio
ID : 1
Format : AC-3
Format/Info : Audio Coding 3
Mode extension : CM (complete main)
Format settings, Endianness : Big
Codec ID : 2000
Duration : 1 h 49 min
Bit rate mode : Constant
Bit rate : 384 kb/s
Channel(s) : 6 channels
Channel positions : Front: L C R, Side: L R, LFE
Sampling rate : 48.0 kHz
Frame rate : 31.250 FPS (1536 spf)
Bit depth : 16 bits
Compression mode : Lossy
Stream size : 300 MiB (21%)
Alignment : Aligned on interleaves
Interleave, duration : 42 ms (1.00 video frame)
Interleave, preload duration : 512 ms

General
Bleeding Steel.2017.1080p.WEB-DL.H264.AC3-EVO.mkv
Format : Matroska
Format version : Version 4 / Version 2
File size : 3.79 GiB
Duration : 1 h 49 min
Overall bit rate : 4 961 kb/s
Movie name : EVO
Encoded date : UTC 2018-04-19 22:47:49
Writing application : mkvmerge v6.7.0 ('Back to the Ground') 64bit built on Jan 8 2014 15:10:52
Writing library : libebml v1.3.0 + libmatroska v1.4.1

Video
ID : 2
Format : AVC
Format/Info : Advanced Video Codec
Format profile : High@L4
Format settings, CABAC : Yes
Format settings, ReFrames : 5 frames
Codec ID : V_MPEG4/ISO/AVC
Duration : 1 h 49 min
Bit rate : 4 478 kb/s
Width : 1 912 pixels
Height : 796 pixels
Display aspect ratio : 2.40:1
Frame rate mode : Constant
Frame rate : 23.976 (24000/1001) FPS
Color space : YUV
Chroma subsampling : 4:2:0
Bit depth : 8 bits
Scan type : Progressive
Bits/(Pixel*Frame) : 0.123
Stream size : 3.42 GiB (90%)
Language : English
Default : Yes
Forced : No
Color range : Limited
Color primaries : BT.709
Transfer characteristics : BT.709
Matrix coefficients : BT.709

Audio
ID : 1
Format : AC-3
Format/Info : Audio Coding 3
Mode extension : CM (complete main)
Format settings, Endianness : Big
Codec ID : A_AC3
Duration : 1 h 49 min
Bit rate mode : Constant
Bit rate : 384 kb/s
Channel(s) : 6 channels
Channel positions : Front: L C R, Side: L R, LFE
Sampling rate : 48.0 kHz
Frame rate : 31.250 FPS (1536 spf)
Bit depth : 16 bits
Compression mode : Lossy
Stream size : 300 MiB (8%)
Language : English
Default : Yes
Forced : No

Menu
00:00:00.000 : en:Chapter 01
00:15:00.000 : en:Chapter 02
00:30:00.000 : en:Chapter 03
00:43:00.000 : en:Chapter 04
01:00:00.000 : en:Chapter 05
01:15:00.000 : en:Chapter 06
01:30:00.000 : en:Chapter 07


HDRip Screenshots

Bleeding Steel (2017)

Bleeding Steel (2017)

Bleeding Steel (2017)


WEB-DL 1080p Screenshots

Bleeding Steel (2017)

Bleeding Steel (2017)

Bleeding Steel (2017)


Come Visit My Blog (•‿•)