Tags
Language
Tags

Blindspot S02E15 (2017)

Posted By: Without
Blindspot S02E15 (2017)

Blindspot S02E15 (2017)
HDTV 720p | MKV | 1280x720 | AVC@2267 kb/s | English AC3@384 kb/s
6 channels | 43 min 2 s | 832 MB
Genre: Crime, Drama, Mystery

Jane Doe is found in Times Square with no memory and mysterious tattoos on her body.

IMDB - 1 win & 5 nominations


General
Unique ID : 250460249903670315319557795252684041248 (0xBC6CE3B75FCE66F19C9F2D5C301DAC20)
Complete name : Blindspot.S02E15.720p.HDTV.X264-DIMENSION\Blindspot.S02E15.720p.HDTV.X264-DIMENSION.mkv
Format : Matroska
Format version : Version 2
File size : 833 MiB
Duration : 43 min 2 s
Overall bit rate : 2 705 kb/s
Encoded date : UTC 2017-02-22 19:58:21
Writing application : mkvmerge v3.1.0 ('Happy up here') built on Jan 19 2010 12:09:24
Writing library : libebml v0.7.9 + libmatroska v0.8.1

Video
ID : 1
Format : AVC
Format/Info : Advanced Video Codec
Format profile : High@L4.1
Format settings, CABAC : Yes
Format settings, ReFrames : 8 frames
Codec ID : V_MPEG4/ISO/AVC
Duration : 43 min 2 s
Bit rate : 2 267 kb/s
Width : 1 280 pixels
Height : 720 pixels
Display aspect ratio : 16:9
Frame rate mode : Constant
Frame rate : 23.976 (24000/1001) FPS
Color space : YUV
Chroma subsampling : 4:2:0
Bit depth : 8 bits
Scan type : Progressive
Bits/(Pixel*Frame) : 0.103
Stream size : 698 MiB (84%)
Writing library : x264 core 148 r2744 b97ae06
Encoding settings : cabac=1 / ref=8 / deblock=1:-2:-2 / analyse=0x3:0x113 / me=umh / subme=9 / psy=1 / psy_rd=1.00:0.00 / mixed_ref=1 / me_range=24 / chroma_me=1 / trellis=2 / 8x8dct=1 / cqm=0 / deadzone=21,11 / fast_pskip=0 / chroma_qp_offset=-2 / threads=18 / lookahead_threads=1 / sliced_threads=0 / nr=0 / decimate=1 / interlaced=0 / bluray_compat=0 / constrained_intra=0 / bframes=5 / b_pyramid=2 / b_adapt=1 / b_bias=0 / direct=3 / weightb=1 / open_gop=0 / weightp=2 / keyint=250 / keyint_min=23 / scenecut=40 / intra_refresh=0 / rc_lookahead=50 / rc=crf / mbtree=1 / crf=18.0 / qcomp=0.60 / qpmin=0 / qpmax=69 / qpstep=4 / ip_ratio=1.40 / aq=1:1.00
Language : English
Default : No
Forced : No

Audio
ID : 2
Format : AC-3
Format/Info : Audio Coding 3
Mode extension : CM (complete main)
Format settings, Endianness : Big
Codec ID : A_AC3
Duration : 43 min 2 s
Bit rate mode : Constant
Bit rate : 384 kb/s
Channel(s) : 6 channels
Channel positions : Front: L C R, Side: L R, LFE
Sampling rate : 48.0 kHz
Frame rate : 31.250 FPS (1536 spf)
Bit depth : 16 bits
Compression mode : Lossy
Stream size : 118 MiB (14%)
Default : Yes
Forced : No


HDTV 720p Screenshots

Blindspot S02E15 (2017)

Blindspot S02E15 (2017)

Blindspot S02E15 (2017)


Come Visit My Blog (•‿•)