Subcategories

Bluebeard (2017)

Posted By: Without
Bluebeard (2017)

Bluebeard (2017)
BDRip 1080p | MKV | 1920x808 | AVC@9160 kb/s | Korean DTS@1509 kb/s
Subs: English | 6 channels | 1 h 57 min | 8.74 GB
Genre: Thriller

Dr. Seung-hoon sedates his landlord before medical check-up, when the old man begins telling him a convincing murder confession.



General
Bluebeard.2017.KOREAN.1080p.BluRay.x264-killerHD\bluebeard.2017.1080p.bluray.x264-killerhd.mkv
Format : Matroska
Format version : Version 4 / Version 2
File size : 8.75 GiB
Duration : 1 h 57 min
Overall bit rate : 10.7 Mb/s
Encoded date : UTC 2017-08-08 20:24:54
Writing application : mkvmerge v8.3.0 ('Over the Horizon') 64bit
Writing library : libebml v1.3.1 + libmatroska v1.4.2

Video
ID : 1
Format : AVC
Format/Info : Advanced Video Codec
Format profile : High@L4.1
Format settings, CABAC : Yes
Format settings, ReFrames : 5 frames
Codec ID : V_MPEG4/ISO/AVC
Duration : 1 h 57 min
Bit rate : 9 160 kb/s
Width : 1 920 pixels
Height : 808 pixels
Display aspect ratio : 2.40:1
Frame rate mode : Constant
Frame rate : 24.000 FPS
Color space : YUV
Chroma subsampling : 4:2:0
Bit depth : 8 bits
Scan type : Progressive
Bits/(Pixel*Frame) : 0.246
Stream size : 7.51 GiB (86%)
Writing library : x264 core 152 r2851 ba24899
Encoding settings : cabac=1 / ref=5 / deblock=1:-3:-3 / analyse=0x3:0x133 / me=umh / subme=9 / psy=1 / psy_rd=1.00:0.00 / mixed_ref=1 / me_range=16 / chroma_me=1 / trellis=2 / 8x8dct=1 / cqm=0 / deadzone=21,11 / fast_pskip=0 / chroma_qp_offset=-2 / threads=25 / lookahead_threads=2 / sliced_threads=0 / nr=0 / decimate=1 / interlaced=0 / bluray_compat=0 / constrained_intra=0 / bframes=3 / b_pyramid=2 / b_adapt=1 / b_bias=0 / direct=3 / weightb=1 / open_gop=0 / weightp=2 / keyint=250 / keyint_min=24 / scenecut=40 / intra_refresh=0 / rc_lookahead=50 / rc=2pass / mbtree=1 / bitrate=9160 / ratetol=1.0 / qcomp=0.60 / qpmin=0 / qpmax=69 / qpstep=4 / cplxblur=20.0 / qblur=0.5 / ip_ratio=1.40 / aq=1:1.00
Language : English
Default : Yes
Forced : No

Audio
ID : 2
Format : DTS
Format/Info : Digital Theater Systems
Mode : 16
Format settings, Endianness : Big
Codec ID : A_DTS
Duration : 1 h 57 min
Bit rate mode : Constant
Bit rate : 1 509 kb/s
Channel(s) : 6 channels
Channel positions : Front: L C R, Side: L R, LFE
Sampling rate : 48.0 kHz
Frame rate : 93.750 FPS (512 spf)
Bit depth : 24 bits
Compression mode : Lossy
Stream size : 1.24 GiB (14%)
Language : Korean
Default : Yes
Forced : No

Text
ID : 3
Format : UTF-8
Codec ID : S_TEXT/UTF8
Codec ID/Info : UTF-8 Plain Text
Duration : 1 h 51 min
Bit rate : 39 b/s
Count of elements : 1198
Stream size : 31.8 KiB (0%)
Title : English
Language : English
Default : Yes
Forced : Yes

Menu
00:00:00.000 : en:00:00:00.000
00:10:19.292 : en:00:10:19.292
00:18:46.708 : en:00:18:46.708
00:26:18.333 : en:00:26:18.333
00:35:42.083 : en:00:35:42.083
00:46:04.708 : en:00:46:04.708
00:56:19.042 : en:00:56:19.042
01:07:53.833 : en:01:07:53.833
01:18:30.875 : en:01:18:30.875
01:29:14.083 : en:01:29:14.083
01:37:55.417 : en:01:37:55.417
01:45:40.417 : en:01:45:40.417
01:53:37.875 : en:01:53:37.875


BDRip 1080p Screenshots

Bluebeard (2017)

Bluebeard (2017)

Bluebeard (2017)


Come Visit My Blog (•‿•)