Tags
Language
Tags

Body Donors - Life After Death (2015)

Posted By: notbanned
720p (HD) / HDTV
Body Donors - Life After Death (2015)

Body Donors - Life After Death (2015)
HDTV | 1280x720 | .MKV/AVC @ 1967 Kbps | 2x~44min | 1.60 GiB
Audio: English AC3 448 kbps, 6 channels | Subs: English
Genre: Documentary

This insightful documentary follows the journeys of two people who courageously decide to donate their bodies to medical science. Our two donors, Mike Bowyer and Diana King, have both chosen to bequeath their bodies to science. In the months leading up to their deaths, we tell their stories, meet their loved ones and find out why they decided to donate their bodies. As their journeys beyond death begin, we follow them through two medical institutes where their bodies take on a life of their own. Mike becomes a valuable learning tool for anatomy students during a ‘Meet the Cadaver’ session and Diana helps surgeons master pioneering techniques for hip replacements. When their bodies are no longer needed, a final memorial service brings staff, students and relatives together to acknowledge the donors’ massive contribution to medical science.

General
Unique ID : 55801558973850155558955703059424870406 (0x29FAFD45329B45244B653912F89E0006)
Complete name : Body.Donors.Part1.720p.mkv
Format : Matroska
Format version : Version 4 / Version 2
File size : 769 MiB
Duration : 44 min 30 s
Overall bit rate : 2 417 kb/s

Video
ID : 1
Format : AVC
Format/Info : Advanced Video Codec
Format profile : High@L4.1
Format settings, CABAC : Yes
Format settings, ReFrames : 5 frames
Codec ID : V_MPEG4/ISO/AVC
Duration : 44 min 30 s
Bit rate : 1 967 kb/s
Width : 1 280 pixels
Height : 720 pixels
Display aspect ratio : 16:9
Frame rate mode : Constant
Frame rate : 25.000 FPS
Color space : YUV
Chroma subsampling : 4:2:0
Bit depth : 8 bits
Scan type : Progressive
Bits/(Pixel*Frame) : 0.085
Stream size : 626 MiB (81%)
Writing library : x264 core 155 r2901 7d0ff22
Encoding settings : cabac=1 / ref=5 / deblock=1:-2:-2 / analyse=0x3:0x113 / me=hex / subme=8 / psy=1 / psy_rd=1.00:0.00 / mixed_ref=1 / me_range=16 / chroma_me=1 / trellis=2 / 8x8dct=1 / cqm=0 / deadzone=21,11 / fast_pskip=1 / chroma_qp_offset=-2 / threads=12 / lookahead_threads=2 / sliced_threads=0 / nr=0 / decimate=1 / interlaced=0 / bluray_compat=0 / constrained_intra=0 / bframes=3 / b_pyramid=2 / b_adapt=1 / b_bias=0 / direct=3 / weightb=1 / open_gop=0 / weightp=2 / keyint=250 / keyint_min=25 / scenecut=40 / intra_refresh=0 / rc_lookahead=50 / rc=crf / mbtree=1 / crf=20.0 / qcomp=0.60 / qpmin=0 / qpmax=69 / qpstep=4 / ip_ratio=1.40 / aq=1:1.00
Language : English
Default : Yes
Forced : No

Audio
ID : 2
Format : AC-3
Format/Info : Audio Coding 3
Format settings, Endianness : Big
Codec ID : A_AC3
Duration : 44 min 30 s
Bit rate mode : Constant
Bit rate : 448 kb/s
Channel(s) : 6 channels
Channel positions : Front: L C R, Side: L R, LFE
Sampling rate : 48.0 kHz
Frame rate : 31.250 FPS (1536 spf)
Bit depth : 16 bits
Compression mode : Lossy
Stream size : 143 MiB (19%)
Language : English
Service kind : Complete Main
Default : Yes
Forced : No

Text
ID : 3
Format : UTF-8
Codec ID : S_TEXT/UTF8
Codec ID/Info : UTF-8 Plain Text
Duration : 44 min 11 s
Bit rate : 88 b/s
Count of elements : 701
Stream size : 28.6 KiB (0%)
Language : English
Default : Yes
Forced : No


Screenshots:

Body Donors - Life After Death (2015)

Body Donors - Life After Death (2015)

Body Donors - Life After Death (2015)

Body Donors - Life After Death (2015)