Tags
Language
Tags

Boo 2! A Madea Halloween (2017)

Posted By: Tavaz
1080p (FullHD) / BDRip IMDb
Boo 2! A Madea Halloween (2017)

Boo 2! A Madea Halloween (2017)
BDRip | MOV | 1920x1040 | English | H264 @ 3815 kbps | AC-3 @ 448 kbps | 1 h 40 min | 3.02 GiB
Subtitles: English
Genre: Comedy, Horror

Madea and the gang encounter monsters, goblins and boogeymen at a haunted campground.

a6e5e8f7cc4347928f3e5a7a5948c28a.mp4 (3.0 GB)



General
Complete name : ./a6e5e8f7cc4347928f3e5a7a5948c28a.mp4
Format : MPEG-4
Format profile : Base Media / Version 2
Codec ID : mp42 (mp42/isom/avc1)
File size : 3.02 GiB
Duration : 1 h 40 min
Overall bit rate mode : Variable
Overall bit rate : 4 283 kb/s
Movie name : Boo.2.A.Madea.Halloween.2017.1080p.BluRay.H264.AC3.DD5.1
Encoded date : UTC 2020-06-28 00:20:23
Tagged date : UTC 2020-06-28 00:30:26
Writing application : DVDFab 11.0.4.2
Cover : Yes

Video
ID : 1
Format : AVC
Format/Info : Advanced Video Codec
Format profile : Main@L4
Format settings : CABAC / 2 Ref Frames
Format settings, CABAC : Yes
Format settings, RefFrames : 2 frames
Format settings, GOP : M=1, N=24
Codec ID : avc1
Codec ID/Info : Advanced Video Coding
Duration : 1 h 40 min
Bit rate mode : Variable
Bit rate : 3 815 kb/s
Maximum bit rate : 5 832 kb/s
Width : 1 920 pixels
Height : 1 040 pixels
Display aspect ratio : 1.85:1
Frame rate mode : Constant
Frame rate : 23.976 (24000/1001) FPS
Color space : YUV
Chroma subsampling : 4:2:0
Bit depth : 8 bits
Scan type : Progressive
Bits/(Pixel*Frame) : 0.080
Stream size : 2.69 GiB (89%)
Encoded date : UTC 2020-06-28 00:20:23
Tagged date : UTC 2020-06-28 00:30:26
Color primaries : BT.709
Transfer characteristics : BT.709
Matrix coefficients : BT.709
Menus : 4

Audio
ID : 2
Format : AC-3
Format/Info : Audio Coding 3
Format settings, Endianness : Big
Codec ID : ac-3
Duration : 1 h 40 min
Bit rate mode : Constant
Bit rate : 448 kb/s
Channel(s) : 6 channels
Channel positions : Front: L C R, Side: L R, LFE
Sampling rate : 48.0 kHz
Frame rate : 31.250 FPS (1536 SPF)
Bit depth : 16 bits
Compression mode : Lossy
Stream size : 324 MiB (10%)
Title : English (ac3 5.1)
Language : English
Service kind : Complete Main
Default : Yes
Alternate group : 1
Encoded date : UTC 2020-06-28 00:20:23
Tagged date : UTC 2020-06-28 00:30:26

Text
ID : 3
Format : VobSub
Codec ID : mp4s-E0
Codec ID/Info : The same subtitle format used on DVDs
Duration : 1 h 36 min
Bit rate mode : Variable
Bit rate : 18.0 kb/s
Maximum bit rate : 3 727 Mb/s
Stream size : 12.4 MiB (0%)
Language : English
Default : Yes
Forced : No
Alternate group : 2
Encoded date : UTC 2020-06-28 00:20:23
Tagged date : UTC 2020-06-28 00:29:59

Menu
ID : 4
Codec ID : text
Duration : 1 h 40 min
Encoded date : UTC 2020-06-28 00:20:23
Tagged date : UTC 2020-06-28 00:30:26
Menu For : 1
00:00:00.000 : Chapter 1
00:05:44.761 : Chapter 2
00:11:32.608 : Chapter 3
00:18:08.879 : Chapter 4
00:23:46.925 : Chapter 5
00:31:24.424 : Chapter 6
00:37:38.631 : Chapter 7
00:44:37.174 : Chapter 8
00:51:59.908 : Chapter 9
00:57:43.167 : Chapter 10
00:59:53.506 : Chapter 11
01:04:36.580 : Chapter 12
01:08:27.353 : Chapter 13
01:15:04.541 : Chapter 14
01:19:55.874 : Chapter 15
01:25:47.934 : Chapter 16
Bit rate mode : VBR





Boo 2! A Madea Halloween (2017)


Boo 2! A Madea Halloween (2017)


Boo 2! A Madea Halloween (2017)


Boo 2! A Madea Halloween (2017)


Boo 2! A Madea Halloween (2017)