Borg McEnroe (2017)

Posted By: JohnSmith
SD / WEB-DL IMDb
Borg McEnroe (2017)

Borg McEnroe (2017)
HDRip | AVI / XviD@1137 kb/s | 720x304 | 1h 47mn | 980 MB | Italian (dubbed): MP3, 128 kb/s (2 ch)
Genre: Biography | Drama | Sport

1980. Lo svedese Björn Borg è uno dei più leggendari tennisti della storia dello sport. Grande icona, Borg ha uno dei suoi più grandi rivali nel giovane e talentuoso statunitense John McEnroe, con cui si contende la vittoria nel grande torneo internazionale di Wimbledon. Entrambi destinati alla leggenda, pagano in realtà prezzi molto alti per essere chi sono.

IMDB - 1 win & 1 nomination.



General
Complete name : A:\Borg.McEnroe.2017.iTALiAN.MD.WEBDL.XviD-iSTANCE.avi
Format : AVI
Format/Info : Audio Video Interleave
File size : 981 MiB
Duration : 1 h 47 min
Overall bit rate : 1 275 kb/s
Writing library : VirtualDub build 32842/release

Video
ID : 0
Format : MPEG-4 Visual
Format profile : Advanced Simple@L5
Format settings, BVOP : 2
Format settings, QPel : No
Format settings, GMC : No warppoints
Format settings, Matrix : Default (MPEG)
Codec ID : XVID
Codec ID/Hint : XviD
Duration : 1 h 47 min
Bit rate : 1 137 kb/s
Width : 720 pixels
Height : 304 pixels
Display aspect ratio : 2.35:1
Frame rate : 24.000 FPS
Color space : YUV
Chroma subsampling : 4:2:0
Bit depth : 8 bits
Scan type : Progressive
Compression mode : Lossy
Bits/(Pixel*Frame) : 0.216
Stream size : 875 MiB (89%)
Writing library : XviD 67

Audio
ID : 1
Format : MPEG Audio
Format version : Version 1
Format profile : Layer 3
Mode : Joint stereo
Mode extension : MS Stereo
Codec ID : 55
Codec ID/Hint : MP3
Duration : 1 h 47 min
Bit rate mode : Constant
Bit rate : 128 kb/s
Channel(s) : 2 channels
Sampling rate : 48.0 kHz
Compression mode : Lossy
Stream size : 98.5 MiB (10%)
Alignment : Split accross interleaves
Interleave, duration : 42 ms (1.00 video frame)
Interleave, preload duratio : 500 ms
Writing library : LAME3.99r
Encoding settings : -m j -V 4 -q 3 -lowpass 17 -b 128




Screenshots

Borg McEnroe (2017)

Borg McEnroe (2017)

Borg McEnroe (2017)