Tags
Language
Tags

Born to Be Free (2016)

Posted By: notbanned
720p (HD) / WEBRip IMDb
Born to Be Free (2016)

Born to Be Free (2016)
WEBRip | 1280x720 | .MKV/AVC @ 4305 Kbps | 1 h 14 min | 2.27 GiB
Subtitles: English, Français, Deutsch, Italiano, Español, Português, Български,
Suomi, Dansk, Nederlands, Ελληνικά, Norsk, Polski, Svenska, Türkçe
Audio: English EAC3 128 kbps, 2 channels
Genre: Documentary

BORN TO BE FREE is a revelatory investigative film made by three intrepid, free-diving journalists Gaya, Tanya and Julia, about the global trade in wild sea mammals. Their journey takes us to the most remote corners of Russia and witnesses, for the very first time, the shocking treatment that whales, dolphins and walruses are subjected to as we discover the corruption at the heart of this cruel international business. A sad and a scandalous story of eighteen belugas - white bowhead whales - languishing in tanks in the hot Black Sea coast. A story that has brought us - freedivers who always communicate and dive with free dolphins and whales in their native element, behind the scenes of many dolphinariums and helped to reveal a number of ugly secrets and hidden facts.

General
Unique ID : 187838411814848100969531191363467680099 (0x8D505CB945C9EC48B6A05A5A5F431963)
Complete name : Born.to.Be.Free.2016.720p.mkv
Format : Matroska
Format version : Version 4 / Version 2
File size : 2.27 GiB
Duration : 1 h 14 min
Overall bit rate : 4 382 kb/s

Video
ID : 1
Format : AVC
Format/Info : Advanced Video Codec
Format profile : High@L3.1
Format settings, CABAC : Yes
Format settings, ReFrames : 3 frames
Format settings, GOP : M=1, N=24
Codec ID : V_MPEG4/ISO/AVC
Duration : 1 h 14 min
Bit rate mode : Constant
Bit rate : 4 305 kb/s
Width : 1 280 pixels
Height : 720 pixels
Display aspect ratio : 16:9
Frame rate mode : Constant
Frame rate : 25.000 FPS
Color space : YUV
Chroma subsampling : 4:2:0
Bit depth : 8 bits
Scan type : Progressive
Bits/(Pixel*Frame) : 0.187
Stream size : 2.20 GiB (97%)
Default : Yes
Forced : No
Color range : Limited
Color primaries : BT.709
Transfer characteristics : BT.709
Matrix coefficients : BT.709

Audio
ID : 2
Format : E-AC-3
Format/Info : Enhanced Audio Coding 3
Format settings, Endianness : Big
Codec ID : A_EAC3
Duration : 1 h 14 min
Bit rate mode : Constant
Bit rate : 128 kb/s
Channel(s) : 2 channels
Channel positions : Front: L R
Sampling rate : 48.0 kHz
Frame rate : 187.500 FPS (256 spf)
Compression mode : Lossy
Stream size : 67.9 MiB (3%)
Language : English
Service kind : Complete Main
Default : Yes
Forced : No

Text #1
ID : 3
Format : UTF-8
Codec ID : S_TEXT/UTF8
Codec ID/Info : UTF-8 Plain Text
Duration : 1 h 13 min
Bit rate : 138 b/s
Count of elements : 918
Stream size : 74.9 KiB (0%)
Language : Arabic
Default : No
Forced : No

Text #2
ID : 4
Format : UTF-8
Codec ID : S_TEXT/UTF8
Codec ID/Info : UTF-8 Plain Text
Duration : 1 h 13 min
Bit rate : 72 b/s
Count of elements : 911
Stream size : 39.2 KiB (0%)
Language : Danish
Default : No
Forced : No

Text #3
ID : 5
Format : UTF-8
Codec ID : S_TEXT/UTF8
Codec ID/Info : UTF-8 Plain Text
Duration : 1 h 13 min
Bit rate : 75 b/s
Count of elements : 913
Stream size : 40.6 KiB (0%)
Language : German
Default : No
Forced : No

Text #4
ID : 6
Format : UTF-8
Codec ID : S_TEXT/UTF8
Codec ID/Info : UTF-8 Plain Text
Duration : 1 h 12 min
Bit rate : 106 b/s
Count of elements : 924
Stream size : 56.1 KiB (0%)
Language : Greek
Default : No
Forced : No

Text #5
ID : 7
Format : UTF-8
Codec ID : S_TEXT/UTF8
Codec ID/Info : UTF-8 Plain Text
Duration : 1 h 11 min
Bit rate : 43 b/s
Count of elements : 532
Stream size : 22.7 KiB (0%)
Language : English
Default : Yes
Forced : No

Text #6
ID : 8
Format : UTF-8
Codec ID : S_TEXT/UTF8
Codec ID/Info : UTF-8 Plain Text
Duration : 1 h 13 min
Bit rate : 83 b/s
Count of elements : 954
Stream size : 45.0 KiB (0%)
Language : English
Default : No
Forced : No

Text #7
ID : 9
Format : UTF-8
Codec ID : S_TEXT/UTF8
Codec ID/Info : UTF-8 Plain Text
Duration : 1 h 13 min
Bit rate : 75 b/s
Count of elements : 916
Stream size : 40.6 KiB (0%)
Language : Finnish
Default : No
Forced : No

Text #8
ID : 10
Format : UTF-8
Codec ID : S_TEXT/UTF8
Codec ID/Info : UTF-8 Plain Text
Duration : 1 h 13 min
Bit rate : 82 b/s
Count of elements : 915
Stream size : 44.6 KiB (0%)
Language : French
Default : No
Forced : No

Text #9
ID : 11
Format : UTF-8
Codec ID : S_TEXT/UTF8
Codec ID/Info : UTF-8 Plain Text
Duration : 1 h 12 min
Bit rate : 46 b/s
Count of elements : 752
Stream size : 24.6 KiB (0%)
Language : Hebrew
Default : No
Forced : No

Text #10
ID : 12
Format : UTF-8
Codec ID : S_TEXT/UTF8
Codec ID/Info : UTF-8 Plain Text
Duration : 1 h 13 min
Bit rate : 73 b/s
Count of elements : 913
Stream size : 39.8 KiB (0%)
Language : Italian
Default : No
Forced : No

Text #11
ID : 13
Format : UTF-8
Codec ID : S_TEXT/UTF8
Codec ID/Info : UTF-8 Plain Text
Duration : 1 h 13 min
Bit rate : 22 b/s
Count of elements : 758
Stream size : 12.2 KiB (0%)
Language : Japanese
Default : No
Forced : No

Text #12
ID : 14
Format : UTF-8
Codec ID : S_TEXT/UTF8
Codec ID/Info : UTF-8 Plain Text
Duration : 1 h 13 min
Bit rate : 40 b/s
Count of elements : 922
Stream size : 22.0 KiB (0%)
Language : Korean
Default : No
Forced : No

Text #13
ID : 15
Format : UTF-8
Codec ID : S_TEXT/UTF8
Codec ID/Info : UTF-8 Plain Text
Duration : 1 h 13 min
Bit rate : 67 b/s
Count of elements : 904
Stream size : 36.2 KiB (0%)
Language : Dutch
Default : No
Forced : No

Text #14
ID : 16
Format : UTF-8
Codec ID : S_TEXT/UTF8
Codec ID/Info : UTF-8 Plain Text
Duration : 1 h 13 min
Bit rate : 65 b/s
Count of elements : 911
Stream size : 35.5 KiB (0%)
Language : Norwegian
Default : No
Forced : No

Text #15
ID : 17
Format : UTF-8
Codec ID : S_TEXT/UTF8
Codec ID/Info : UTF-8 Plain Text
Duration : 1 h 13 min
Bit rate : 79 b/s
Count of elements : 913
Stream size : 43.0 KiB (0%)
Language : Polish
Default : No
Forced : No

Text #16
ID : 18
Format : UTF-8
Codec ID : S_TEXT/UTF8
Codec ID/Info : UTF-8 Plain Text
Duration : 1 h 13 min
Bit rate : 79 b/s
Count of elements : 915
Stream size : 42.9 KiB (0%)
Language : Portuguese
Default : No
Forced : No

Text #17
ID : 19
Format : UTF-8
Codec ID : S_TEXT/UTF8
Codec ID/Info : UTF-8 Plain Text
Duration : 1 h 11 min
Bit rate : 84 b/s
Count of elements : 771
Stream size : 44.7 KiB (0%)
Language : rom
Default : No
Forced : No

Text #18
ID : 20
Format : UTF-8
Codec ID : S_TEXT/UTF8
Codec ID/Info : UTF-8 Plain Text
Duration : 1 h 13 min
Bit rate : 75 b/s
Count of elements : 914
Stream size : 40.8 KiB (0%)
Language : Spanish
Default : No
Forced : No

Text #19
ID : 21
Format : UTF-8
Codec ID : S_TEXT/UTF8
Codec ID/Info : UTF-8 Plain Text
Duration : 1 h 13 min
Bit rate : 75 b/s
Count of elements : 914
Stream size : 40.9 KiB (0%)
Language : Swedish
Default : No
Forced : No

Text #20
ID : 22
Format : UTF-8
Codec ID : S_TEXT/UTF8
Codec ID/Info : UTF-8 Plain Text
Duration : 1 h 11 min
Bit rate : 123 b/s
Count of elements : 927
Stream size : 65.3 KiB (0%)
Language : tai
Default : No
Forced : No

Text #21
ID : 23
Format : UTF-8
Codec ID : S_TEXT/UTF8
Codec ID/Info : UTF-8 Plain Text
Duration : 1 h 13 min
Bit rate : 83 b/s
Count of elements : 916
Stream size : 45.3 KiB (0%)
Language : Turkish
Default : No
Forced : No


Screenshots:

Born to Be Free (2016)

Born to Be Free (2016)

Born to Be Free (2016)

Born to Be Free (2016)