Brad's Status (2017)

Posted By: Without
1080p (FullHD) / BluRay Remux IMDb
Brad's Status (2017)

Brad's Status (2017)
BD-Remux | MKV | 1920x1080 | AVC@28.8 Mb/s | English DTS-HD MA@3926 kb/s (6 ch)
Subs: English | 1 h 41 min | 23.4 GB
Genre: Comedy, Drama, Music

A father takes his son to tour colleges on the East Coast and meets up with an old friend who makes him feel inferior about his life's choices.



General
Brads.Status.2017.1080p.BluRay.REMUX.AVC.DTS-HD.MA.5.1-EPSiLON\Brads.Status.2017.1080p.BluRay.REMUX.AVC.DTS-HD.MA.5.1-EPSiLON.mkv
Format : Matroska
Format version : Version 4 / Version 2
File size : 23.4 GiB
Duration : 1 h 41 min
Overall bit rate mode : Variable
Overall bit rate : 32.8 Mb/s
Encoded date : UTC 2017-12-23 00:36:50
Writing application : mkvmerge v19.0.0 ('Brave Captain') 64-bit
Writing library : libebml v1.3.5 + libmatroska v1.4.8

Video
ID : 1
Format : AVC
Format/Info : Advanced Video Codec
Format profile : High@L4.1
Format settings, CABAC : Yes
Format settings, ReFrames : 4 frames
Codec ID : V_MPEG4/ISO/AVC
Duration : 1 h 41 min
Bit rate mode : Variable
Bit rate : 28.8 Mb/s
Maximum bit rate : 39.0 Mb/s
Width : 1 920 pixels
Height : 1 080 pixels
Display aspect ratio : 16:9
Frame rate mode : Constant
Frame rate : 23.976 (24000/1001) FPS
Color space : YUV
Chroma subsampling : 4:2:0
Bit depth : 8 bits
Scan type : Progressive
Bits/(Pixel*Frame) : 0.580
Stream size : 20.5 GiB (88%)
Title : MPEG-4 AVC Video / 28992 kbps / 1080p / 23.976 fps / 16:9 / High Profile 4.1
Language : English
Default : Yes
Forced : No

Audio
ID : 2
Format : DTS
Format/Info : Digital Theater Systems
Format profile : MA / Core
Mode : 16
Format settings, Endianness : Big
Codec ID : A_DTS
Duration : 1 h 41 min
Bit rate mode : Variable / Constant
Bit rate : 3 926 kb/s / 1 509 kb/s
Channel(s) : 6 channels
Channel positions : Front: L C R, Side: L R, LFE
Sampling rate : 48.0 kHz
Frame rate : 93.750 FPS (512 spf)
Bit depth : 24 bits
Compression mode : Lossless / Lossy
Stream size : 2.80 GiB (12%)
Title : DTS-HD Master Audio / 5.1 / 48 kHz / 3926 kbps / 24-bit
Language : English
Default : Yes
Forced : No

Text
ID : 3
Format : PGS
Codec ID : S_HDMV/PGS
Codec ID/Info : Picture based subtitle format used on BDs/HD-DVDs
Duration : 1 h 40 min
Bit rate : 56.8 kb/s
Count of elements : 3772
Stream size : 40.9 MiB (0%)
Title : SDH
Language : English
Default : No
Forced : No

Menu
00:00:00.000 : en:Chapter 1
00:06:45.655 : en:Chapter 2
00:09:51.549 : en:Chapter 3
00:13:41.821 : en:Chapter 4
00:19:08.647 : en:Chapter 5
00:25:13.929 : en:Chapter 6
00:31:48.615 : en:Chapter 7
00:34:22.769 : en:Chapter 8
00:39:59.063 : en:Chapter 9
00:43:55.508 : en:Chapter 10
00:49:21.041 : en:Chapter 11
00:56:21.503 : en:Chapter 12
01:03:05.156 : en:Chapter 13
01:07:03.770 : en:Chapter 14
01:10:27.306 : en:Chapter 15
01:15:14.802 : en:Chapter 16
01:22:07.047 : en:Chapter 17
01:27:11.268 : en:Chapter 18
01:31:19.265 : en:Chapter 19
01:35:28.723 : en:Chapter 20


Screenshots

Brad's Status (2017)

Brad's Status (2017)

Brad's Status (2017)

Brad's Status (2017)


Come Visit My Blog (•‿•)