Breaking Bad The Movie (2017)

Posted By: Without
Breaking Bad The Movie (2017)

Breaking Bad The Movie (2017)
HDRip | AVI | 720x304 | XviD@1311 kb/s | English AC3@224 kb/s | 2 channels | 2 h 7 min | 1.37 GB
Genre: Crime, Drama, Thriller

Breaking Bad: The Movie is perfect for anyone who can’t be bothered to watch the show .

IMDB - Top Rated TV #5 | Won 2 Golden Globes. Another 139 wins & 222 nominations


General
Complete name : Breaking.Bad.The.Movie.2017.HDRip.XViD.AC3-ETRG\Breaking.Bad.The.Movie.2017.HDRip.XViD.AC3-ETRG.avi
Format : AVI
Format/Info : Audio Video Interleave
File size : 1.37 GiB
Duration : 2 h 7 min
Overall bit rate : 1 545 kb/s
Writing library : VirtualDub build 35491/release

Video
ID : 0
Format : MPEG-4 Visual
Format profile : Advanced Simple@L5
Format settings, BVOP : 2
Format settings, QPel : No
Format settings, GMC : No warppoints
Format settings, Matrix : Default (H.263)
Muxing mode : Packed bitstream
Codec ID : XVID
Codec ID/Hint : XviD
Duration : 2 h 7 min
Bit rate : 1 311 kb/s
Width : 720 pixels
Height : 304 pixels
Display aspect ratio : 2.35:1
Frame rate : 25.000 FPS
Color space : YUV
Chroma subsampling : 4:2:0
Bit depth : 8 bits
Scan type : Progressive
Compression mode : Lossy
Bits/(Pixel*Frame) : 0.240
Stream size : 1.16 GiB (85%)
Writing library : XviD 65

Audio
ID : 1
Format : AC-3
Format/Info : Audio Coding 3
Mode extension : CM (complete main)
Format settings, Endianness : Big
Codec ID : 2000
Duration : 2 h 7 min
Bit rate mode : Constant
Bit rate : 224 kb/s
Channel(s) : 2 channels
Channel positions : Front: L R
Sampling rate : 48.0 kHz
Frame rate : 31.250 FPS (1536 spf)
Bit depth : 16 bits
Compression mode : Lossy
Stream size : 204 MiB (14%)
Alignment : Aligned on interleaves
Interleave, duration : 40 ms (1.00 video frame)
Interleave, preload duration : 512 ms


HDRip Screenshots

Breaking Bad The Movie (2017)

Breaking Bad The Movie (2017)

Breaking Bad The Movie (2017)

Breaking Bad The Movie (2017)

Breaking Bad The Movie (2017)

Breaking Bad The Movie (2017)

Breaking Bad The Movie (2017)


Come Visit My Blog (•‿•)