Brian Wilson - Songwriter: 1962 to 1969 (2010)

Posted By: vivid23
Brian Wilson - Songwriter: 1962 to 1969 (2010)

Brian Wilson - Songwriter: 1962 to 1969 (2010)
DVDrip | 720x480 | MKV/x264 @ 1055 Kbps | 189mn | Audio: English AC3 192 kbps, 2 channels | Subs: None | 1.69 GB
Genre: Documentary

Brian Wilson Songwriter 1962 - 1969 is a documentary film in which the rich tapestry of music written and produced by this brilliant 20th century composer is investigated and reviewed. With the main feature running at over three hours in length across two discs, the songs Brian wrote for and recorded with The Beach Boys during the 1960s are here re-assessed to quite startling effect. FEATURES INCLUDE - Historical musical performances and rare and classic recordings re-assessed by a panel of esteemed experts Obscure footage, rare archive interviews and seldom seen photographs Exclusive contributions from fellow Beach Boys, Bruce Johnston and David Marks; Wrecking Crew musicians Carol Kaye and Hal Blaine; friend and Beach Boys manager Fred Vail; producers Russ Titelman and Bill Halverson; Wilson family friends Billy Hinsche and Danny Hutton, biographers Peter Ames Carlin and Domenic Priore and many others Live and studio recordings of many Brian Wilson classics.

Video
ID : 1
Format : AVC
Format/Info : Advanced Video Codec
Format profile : High@L4.0
Format settings, CABAC : Yes
Format settings, ReFrames : 16 frames
Muxing mode : Header stripping
Codec ID : V_MPEG4/ISO/AVC
Duration : 3h 9mn
Bit rate : 1 055 Kbps
Width : 720 pixels
Height : 480 pixels
Display aspect ratio : 16:9
Frame rate : 29.970 fps
Standard : NTSC
Color space : YUV
Chroma subsampling : 4:2:0
Bit depth : 8 bits
Scan type : Progressive
Bits/(Pixel*Frame) : 0.102
Stream size : 1.40 GiB (83%)
Language : English
Color primaries : BT.601-6 525, BT.1358 525, BT.1700 NTSC, SMPTE 170M
Transfer characteristics : BT.709-5, BT.1361
Matrix coefficients : BT.601-6 525, BT.1358 525, BT.1700 NTSC, SMPTE 170M

Audio
ID : 2
Format : AC-3
Format/Info : Audio Coding 3
Mode extension : CM (complete main)
Muxing mode : Header stripping
Codec ID : A_AC3
Duration : 3h 9mn
Bit rate mode : Constant
Bit rate : 192 Kbps
Channel(s) : 2 channels
Channel positions : Front: L R
Sampling rate : 48.0 KHz
Bit depth : 16 bits
Compression mode : Lossy
Stream size : 261 MiB (15%)

Menu
00:00:00.000 : en:Chapter 1
00:06:49.609 : en:Chapter 2
00:29:05.009 : en:Chapter 3
00:44:09.747 : en:Chapter 4
00:54:26.930 : en:Chapter 5
01:15:26.922 : en:Chapter 6
01:28:16.891 : en:Chapter 7
01:31:32.512 : en:Chapter 1
01:53:27.258 : en:Chapter 2
02:03:43.774 : en:Chapter 3
02:20:06.823 : en:Chapter 4
02:22:46.849 : en:Chapter 5
02:31:10.319 : en:Chapter 6
02:47:39.374 : en:Chapter 7


Brian Wilson - Songwriter: 1962 to 1969 (2010)

Brian Wilson - Songwriter: 1962 to 1969 (2010)


Feel free to contact me when links are dead



http://filepost.com/files/m99693f4/BrianWilson.SingerSongwriter.part1.rar
http://filepost.com/files/7bdm4e36/BrianWilson.SingerSongwriter.part2.rar
http://filepost.com/files/1568cae2/BrianWilson.SingerSongwriter.part3.rar
http://filepost.com/files/6896c6df/BrianWilson.SingerSongwriter.part4.rar
http://filepost.com/files/8ce7cd87/BrianWilson.SingerSongwriter.part5.rar
http://filepost.com/files/f637eba6/BrianWilson.SingerSongwriter.part6.rar
http://filepost.com/files/ca6bd62m/BrianWilson.SingerSongwriter.part7.rar

http://uploaded.net/file/a2hgq3t8/BrianWilson.SingerSongwriter.part1.rar
http://uploaded.net/file/f72yl3py/BrianWilson.SingerSongwriter.part2.rar
http://uploaded.net/file/1txesyzz/BrianWilson.SingerSongwriter.part3.rar
http://uploaded.net/file/ftrdish9/BrianWilson.SingerSongwriter.part4.rar
http://uploaded.net/file/7swx4gxd/BrianWilson.SingerSongwriter.part5.rar
http://uploaded.net/file/mwuocfbz/BrianWilson.SingerSongwriter.part6.rar
http://uploaded.net/file/4bvfzne5/BrianWilson.SingerSongwriter.part7.rar

http://rapidgator.net/file/64385899/BrianWilson.SingerSongwriter.part1.rar
http://rapidgator.net/file/64385900/BrianWilson.SingerSongwriter.part2.rar
http://rapidgator.net/file/64385932/BrianWilson.SingerSongwriter.part3.rar
http://rapidgator.net/file/64385941/BrianWilson.SingerSongwriter.part4.rar
http://rapidgator.net/file/64385964/BrianWilson.SingerSongwriter.part5.rar
http://rapidgator.net/file/64385963/BrianWilson.SingerSongwriter.part6.rar
http://rapidgator.net/file/64385914/BrianWilson.SingerSongwriter.part7.rar