Please register here if you want to download anything!

If domain in your address bar is different from the list below
PLEASE LEAVE THAT SITE IMMEDIATELY
❗IT'S A DANGEROUS FAKE❗



Spicy Magazines for Men! ;-)

Bricks in Motion (2017)

Posted By: Tavaz
1080p (FullHD) / WEBRip IMDb
Bricks in Motion (2017)

Bricks in Motion (2017)
WEBRip | MKV | 1920x1080 | English | H264 @ 7084 kbps | E-AC-3 @ 224 kbps | 1 h 27 min | 4.47 GiB
Subtitles: English
Genre: Documentary, Animation, Biography

BRICKS IN MOTION is a feature length documentary that explores the lives of individuals involved in the hobby of creating stop-motion animated films with LEGO® bricks and other building toys. Filmed in five countries around the world, the film is a journey through the creative life and struggles of a diverse community of storytellers as they bring their spectacular visions to life.

Bricks.in.Motion.2016.1080p.Amazon.WEB-DL.DD+2.0.H.264-QOQ.mkv (4.5 GB)



General
Unique ID : 177049508016510726091709670903121293412 (0x85327EB29AFD86B98A04CBF54045B064)
Complete name : ./Bricks.in.Motion.2016.1080p.Amazon.WEB-DL.DD+2.0.H.264-QOQ.mkv
Format : Matroska
Format version : Version 4 / Version 2
File size : 4.47 GiB
Duration : 1 h 27 min
Overall bit rate mode : Variable
Overall bit rate : 7 311 kb/s
Encoded date : UTC 2018-01-02 06:40:43
Writing application : mkvmerge v13.0.0 ('The Juggler') 64bit
Writing library : libebml v1.3.4 + libmatroska v1.4.5

Video
ID : 1
Format : AVC
Format/Info : Advanced Video Codec
Format profile : High@L4
Format settings : CABAC / 4 Ref Frames
Format settings, CABAC : Yes
Format settings, RefFrames : 4 frames
Codec ID : V_MPEG4/ISO/AVC
Duration : 1 h 27 min
Bit rate mode : Variable
Bit rate : 7 084 kb/s
Maximum bit rate : 15.0 Mb/s
Width : 1 920 pixels
Height : 1 080 pixels
Display aspect ratio : 16:9
Frame rate mode : Constant
Frame rate : 23.976 (24000/1001) FPS
Color space : YUV
Chroma subsampling : 4:2:0
Bit depth : 8 bits
Scan type : Progressive
Bits/(Pixel*Frame) : 0.142
Stream size : 4.33 GiB (97%)
Default : Yes
Forced : No
Color range : Limited
Color primaries : BT.709
Transfer characteristics : BT.709
Matrix coefficients : BT.709

Audio
ID : 2
Format : E-AC-3
Format/Info : Enhanced Audio Coding 3
Format settings, Endianness : Big
Codec ID : A_EAC3
Duration : 1 h 27 min
Bit rate mode : Constant
Bit rate : 224 kb/s
Channel(s) : 2 channels
Channel positions : Front: L R
Sampling rate : 48.0 kHz
Frame rate : 187.500 FPS (256 SPF)
Compression mode : Lossy
Stream size : 140 MiB (3%)
Language : English
Service kind : Complete Main
Default : Yes
Forced : No

Text #1
ID : 3
Format : UTF-8
Codec ID : S_TEXT/UTF8
Codec ID/Info : UTF-8 Plain Text
Duration : 1 h 23 min
Bit rate : 108 b/s
Count of elements : 1625
Stream size : 66.7 KiB (0%)
Language : English
Default : No
Forced : No

Text #2
ID : 4
Format : UTF-8
Codec ID : S_TEXT/UTF8
Codec ID/Info : UTF-8 Plain Text
Duration : 1 h 23 min
Bit rate : 111 b/s
Count of elements : 1661
Stream size : 68.5 KiB (0%)
Title : SDH
Language : English
Default : No
Forced : No





Bricks in Motion (2017)


Bricks in Motion (2017)


Bricks in Motion (2017)


Bricks in Motion (2017)


Bricks in Motion (2017)