Tags
Language
Tags

Ragazze nel pallone: Sfida mondiale (2017)

Posted By: Tavaz
1080p (FullHD) / BDRip IMDb
Ragazze nel pallone: Sfida mondiale (2017)

Ragazze nel pallone: Sfida mondiale (2017)
BDRip | MKV | 1920x1080 | English | H264 @ 5760 kbps | AC-3 @ 448 kbps | 1 h 35 min | 4.13 GiB
Subtitles: English
Genre: Comedy, Romance

Dopo essere state tre volte campionesse nazionali di cheerleading, le Rebels vengono sfidate da un misterioso team chiamato The Truth, intenzionato a distruggere la loro reputazione. Umiliate sui social, il capitano Destiny perde la stima del gruppo. La ragazza decide così di rivoluzionare lo stile delle loro coreografie ammettendo in squadra alcuni giovani streetdancer, per mostrare al mondo intero che le Rebels sono e saranno sempre le migliori cheerleader in circolazione.

c59bc408ce1e03987153bfb563746d6f.mkv (4.1 GB)



General
Complete name : ./c59bc408ce1e03987153bfb563746d6f.mkv
Format : Matroska
Format version : Version 4 / Version 2
File size : 4.13 GiB
Duration : 1 h 35 min
Overall bit rate : 6 207 kb/s
Encoded date : UTC 2019-03-22 08:43:35 / UTC 2019-03-21T06:40:53Z
Writing application : mkvmerge v31.0.0 ('Dolores In A Shoestand') 64-bit
Writing library : libebml v1.3.6 + libmatroska v1.4.9 / Lavf57.7.2

Video
ID : 1
Format : AVC
Format/Info : Advanced Video Codec
Format profile : High@L4
Format settings : CABAC / 4 Ref Frames
Format settings, CABAC : Yes
Format settings, RefFrames : 4 frames
Codec ID : V_MPEG4/ISO/AVC
Duration : 1 h 35 min
Bit rate : 5 760 kb/s
Width : 1 920 pixels
Height : 1 080 pixels
Display aspect ratio : 16:9
Frame rate mode : Constant
Frame rate : 23.976 (24000/1001) FPS
Color space : YUV
Chroma subsampling : 4:2:0
Bit depth : 8 bits
Scan type : Progressive
Bits/(Pixel*Frame) : 0.116
Stream size : 3.75 GiB (91%)
Writing library : x264 core 155 r2901 7d0ff22
Encoding settings : cabac=1 / ref=4 / deblock=1:-3:-3 / analyse=0x3:0x133 / me=umh / subme=9 / psy=1 / psy_rd=1.10:0.25 / mixed_ref=1 / me_range=32 / chroma_me=1 / trellis=2 / 8x8dct=1 / cqm=0 / deadzone=6,6 / fast_pskip=1 / chroma_qp_offset=-4 / threads=24 / lookahead_threads=2 / sliced_threads=0 / nr=0 / decimate=1 / interlaced=0 / bluray_compat=0 / constrained_intra=0 / bframes=6 / b_pyramid=2 / b_adapt=2 / b_bias=0 / direct=3 / weightb=1 / open_gop=0 / weightp=2 / keyint=240 / keyint_min=24 / scenecut=40 / intra_refresh=0 / rc_lookahead=40 / rc=2pass / mbtree=1 / bitrate=5760 / ratetol=1.0 / qcomp=0.60 / qpmin=0 / qpmax=69 / qpstep=4 / cplxblur=20.0 / qblur=0.5 / vbv_maxrate=20000 / vbv_bufsize=25000 / nal_hrd=none / filler=0 / ip_ratio=1.40 / aq=1:1.00
Default : Yes
Forced : No
Color range : Limited
Color primaries : BT.709
Transfer characteristics : BT.709
Matrix coefficients : BT.709
Statistics Tags Issue : mkvmerge v31.0.0 ('Dolores In A Shoestand') 64-bit 2019-03-22 08:43:35 / mkvmerge v31.0.0 ('Dolores In A Shoestand') 64-bit 2019-03-22 08:43:35 / UTC 2019-03-21T06:40:53Z
FromStats_BitRate : 5757439
FromStats_Duration : 01:35:15.627000000
FromStats_FrameCount : 137038
FromStats_StreamSize : 4113422300

Audio
ID : 2
Format : AC-3
Format/Info : Audio Coding 3
Format settings, Endianness : Big
Codec ID : A_AC3
Duration : 1 h 35 min
Bit rate mode : Constant
Bit rate : 448 kb/s
Channel(s) : 6 channels
Channel positions : Front: L C R, Side: L R, LFE
Sampling rate : 48.0 kHz
Frame rate : 31.250 FPS (1536 SPF)
Bit depth : 16 bits
Compression mode : Lossy
Stream size : 305 MiB (7%)
Title : Surround
Language : English
Service kind : Complete Main
Default : Yes
Forced : No
Statistics Tags Issue : mkvmerge v31.0.0 ('Dolores In A Shoestand') 64-bit 2019-03-22 08:43:35 / mkvmerge v31.0.0 ('Dolores In A Shoestand') 64-bit 2019-03-22 08:43:35 / UTC 2019-03-21T06:40:53Z
FromStats_BitRate : 448000
FromStats_Duration : 01:35:15.648000000
FromStats_FrameCount : 178614
FromStats_StreamSize : 320076288

Text
ID : 3
Format : UTF-8
Codec ID : S_TEXT/UTF8
Codec ID/Info : UTF-8 Plain Text
Language : English
Default : Yes
Forced : No
Statistics Tags Issue : mkvmerge v31.0.0 ('Dolores In A Shoestand') 64-bit 2019-03-22 08:43:35 / mkvmerge v31.0.0 ('Dolores In A Shoestand') 64-bit 2019-03-22 08:43:35 / UTC 2019-03-21T06:40:53Z
FromStats_BitRate : 80
FromStats_Duration : 01:30:23.752000000
FromStats_FrameCount : 1512
FromStats_StreamSize : 54300

Menu
00:00:00.000 : :Chapter 1
00:04:34.775 : :Chapter 2
00:07:27.614 : :Chapter 3
00:12:17.320 : :Chapter 4
00:19:52.650 : :Chapter 5
00:24:07.696 : :Chapter 6
00:27:50.127 : :Chapter 7
00:32:26.862 : :Chapter 8
00:38:10.288 : :Chapter 9
00:41:42.625 : :Chapter 10
00:44:03.099 : :Chapter 11
00:49:17.580 : :Chapter 12
00:56:00.440 : :Chapter 13
01:00:40.846 : :Chapter 14
01:04:45.924 : :Chapter 15
01:08:54.422 : :Chapter 16
01:12:45.736 : :Chapter 17
01:18:22.281 : :Chapter 18
01:23:33.842 : :Chapter 19
01:30:38.141 : :Chapter 20





Ragazze nel pallone: Sfida mondiale (2017)


Ragazze nel pallone: Sfida mondiale (2017)


Ragazze nel pallone: Sfida mondiale (2017)


Ragazze nel pallone: Sfida mondiale (2017)


Ragazze nel pallone: Sfida mondiale (2017)