Tags
Language
Tags

Bring Me the Head of Alfredo Garcia (1974)

Posted By: Tavaz
720p (HD) / BDRip IMDb
Bring Me the Head of Alfredo Garcia (1974)

Bring Me the Head of Alfredo Garcia (1974)
BDRip | MKV | 1280x720 | English | H264 @ 2560 kbps | AC-3 @ 160 kbps | 1 h 52 min | 2.44 GiB
Subtitles: English
Genre: Action, Crime, Drama

An American bartender and his prostitute girlfriend go on a road trip through the Mexican underworld to collect a $1 million bounty on the head of a dead gigolo.

f1bf260bc3b5228d52dafda6762737cb.mkv (2.4 GB)



General
Unique ID : 104323630959230388203804083684113899422 (0x4E7C001F456431D312516A741E17DF9E)
Complete name : ./f1bf260bc3b5228d52dafda6762737cb.mkv
Format : Matroska
Format version : Version 4 / Version 2
File size : 2.44 GiB
Duration : 1 h 52 min
Overall bit rate : 3 106 kb/s
Movie name : Bring.Me.the.Head.of.Alfredo.Garcia.1974.720p.BluRay.x264-x0r
Encoded date : UTC 2018-07-24 14:55:27
Writing application : mkvmerge v7.7.0 ('Six Voices') 64bit built on Mar 1 2015 01:50:05
Writing library : libebml v1.3.1 + libmatroska v1.4.2

Video
ID : 1
Format : AVC
Format/Info : Advanced Video Codec
Format profile : High@L4
Format settings : CABAC / 8 Ref Frames
Format settings, CABAC : Yes
Format settings, RefFrames : 8 frames
Codec ID : V_MPEG4/ISO/AVC
Duration : 1 h 52 min
Bit rate : 2 560 kb/s
Width : 1 280 pixels
Height : 720 pixels
Display aspect ratio : 16:9
Frame rate mode : Constant
Frame rate : 23.976 FPS
Color space : YUV
Chroma subsampling : 4:2:0
Bit depth : 8 bits
Scan type : Progressive
Bits/(Pixel*Frame) : 0.116
Stream size : 2.01 GiB (82%)
Writing library : x264 core 148 r2795 aaa9aa8
Encoding settings : cabac=1 / ref=8 / deblock=1:-2:-2 / analyse=0x3:0x133 / me=umh / subme=9 / psy=1 / psy_rd=1.00:0.25 / mixed_ref=1 / me_range=32 / chroma_me=1 / trellis=2 / 8x8dct=1 / cqm=0 / deadzone=6,6 / fast_pskip=1 / chroma_qp_offset=-4 / threads=22 / lookahead_threads=2 / sliced_threads=0 / nr=0 / decimate=0 / interlaced=0 / bluray_compat=0 / constrained_intra=0 / bframes=4 / b_pyramid=2 / b_adapt=2 / b_bias=0 / direct=3 / weightb=1 / open_gop=0 / weightp=2 / keyint=240 / keyint_min=24 / scenecut=40 / intra_refresh=0 / rc_lookahead=40 / rc=2pass / mbtree=1 / bitrate=2560 / ratetol=1.0 / qcomp=0.80 / qpmin=0 / qpmax=69 / qpstep=4 / cplxblur=20.0 / qblur=0.5 / vbv_maxrate=20000 / vbv_bufsize=25000 / nal_hrd=none / filler=0 / ip_ratio=1.10 / aq=1:0.50
Language : English
Default : Yes
Forced : No
Color range : Limited
Color primaries : BT.709
Transfer characteristics : BT.709
Matrix coefficients : BT.709

Audio #1
ID : 2
Format : AC-3
Format/Info : Audio Coding 3
Format settings, Endianness : Big
Codec ID : A_AC3
Duration : 1 h 52 min
Bit rate mode : Constant
Bit rate : 160 kb/s
Channel(s) : 1 channel
Channel positions : Front: C
Sampling rate : 48.0 kHz
Frame rate : 31.250 FPS (1536 SPF)
Bit depth : 16 bits
Compression mode : Lossy
Delay relative to video : -37 ms
Stream size : 129 MiB (5%)
Title : Mono
Language : English
Service kind : Complete Main
Default : Yes
Forced : No

Audio #2
ID : 3
Format : AC-3
Format/Info : Audio Coding 3
Format settings, Endianness : Big
Codec ID : A_AC3
Duration : 1 h 52 min
Bit rate mode : Constant
Bit rate : 192 kb/s
Channel(s) : 2 channels
Channel positions : Front: L R
Sampling rate : 48.0 kHz
Frame rate : 31.250 FPS (1536 SPF)
Bit depth : 16 bits
Compression mode : Lossy
Delay relative to video : -10 ms
Stream size : 154 MiB (6%)
Title : Commentary #1
Language : English
Service kind : Complete Main
Default : No
Forced : No

Audio #3
ID : 4
Format : AC-3
Format/Info : Audio Coding 3
Format settings, Endianness : Big
Codec ID : A_AC3
Duration : 1 h 52 min
Bit rate mode : Constant
Bit rate : 192 kb/s
Channel(s) : 2 channels
Channel positions : Front: L R
Sampling rate : 48.0 kHz
Frame rate : 31.250 FPS (1536 SPF)
Bit depth : 16 bits
Compression mode : Lossy
Delay relative to video : -10 ms
Stream size : 154 MiB (6%)
Title : Commentary #2
Language : English
Service kind : Complete Main
Default : No
Forced : No

Text #1
ID : 5
Format : UTF-8
Codec ID : S_TEXT/UTF8
Codec ID/Info : UTF-8 Plain Text
Duration : 1 h 46 min
Bit rate : 3 b/s
Count of elements : 85
Stream size : 2.39 KiB (0%)
Title : Foreign only
Language : English
Default : Yes
Forced : Yes

Text #2
ID : 6
Format : UTF-8
Codec ID : S_TEXT/UTF8
Codec ID/Info : UTF-8 Plain Text
Duration : 1 h 48 min
Bit rate : 28 b/s
Count of elements : 743
Stream size : 22.3 KiB (0%)
Title : SDH
Language : English
Default : No
Forced : No

Menu
00:00:00.037 : :Chapter 1
00:08:21.287 : :Chapter 2
00:20:09.620 : :Chapter 3
00:28:14.688 : :Chapter 4
00:39:37.704 : :Chapter 5
00:55:13.055 : :Chapter 6
01:03:25.714 : :Chapter 7
01:10:42.650 : :Chapter 8
01:18:46.050 : :Chapter 9
01:23:32.753 : :Chapter 10
01:31:38.196 : :Chapter 11
01:42:00.943 : :Chapter 12





Bring Me the Head of Alfredo Garcia (1974)


Bring Me the Head of Alfredo Garcia (1974)


Bring Me the Head of Alfredo Garcia (1974)


Bring Me the Head of Alfredo Garcia (1974)


Bring Me the Head of Alfredo Garcia (1974)