Channel 4 - British Workers Wanted (2017)

Posted By: notbanned
Channel 4 - British Workers Wanted (2017)

Channel 4 - British Workers Wanted (2017)
HDTV | 1280x720 | .MP4/AVC @ 2600 Kbps | 46 min 55 s | 927 MiB
Audio: English AAC 160 kbps, 2 channels | Subs: English
Genre: Documentary

Bognor Regis recruitment agency Opus Loco is facing a problem. Ninety-eight per cent of their staff is from Eastern Europe, and many of them are now choosing to leave the UK. This documentary follows the three women who run the agency as they set out to sign up British workers ready to take on temporary work ranging from landscape gardening and catering to general warehouse work. But it proves more difficult than they had expected.


General
Complete name : British.Workers.Wanted.720p.mp4
Format : MPEG-4
Format profile : Base Media
Codec ID : isom (isom)
File size : 927 MiB
Duration : 46 min 55 s
Overall bit rate mode : Variable
Overall bit rate : 2 762 kb/s

Video
ID : 1
Format : AVC
Format/Info : Advanced Video Codec
Format profile : Main@L4.1
Format settings, CABAC : Yes
Format settings, ReFrames : 2 frames
Format settings, GOP : M=1, N=12
Codec ID : avc1
Codec ID/Info : Advanced Video Coding
Duration : 46 min 55 s
Bit rate : 2 600 kb/s
Maximum bit rate : 5 844 kb/s
Width : 1 280 pixels
Height : 720 pixels
Display aspect ratio : 16:9
Frame rate mode : Constant
Frame rate : 25.000 FPS
Color space : YUV
Chroma subsampling : 4:2:0
Bit depth : 8 bits
Scan type : Progressive
Bits/(Pixel*Frame) : 0.113
Stream size : 873 MiB (94%)
Encoded date : UTC 2017-11-18 13:57:44
Tagged date : UTC 2017-11-18 14:33:17

Audio
ID : 2
Format : AAC
Format/Info : Advanced Audio Codec
Format profile : LC
Codec ID : 40
Duration : 46 min 55 s
Bit rate mode : Variable
Bit rate : 160 kb/s
Maximum bit rate : 234 kb/s
Channel(s) : 2 channels
Channel positions : Front: L R
Sampling rate : 48.0 kHz
Frame rate : 46.875 FPS (1024 spf)
Compression mode : Lossy
Stream size : 53.7 MiB (6%)
Tagged date : UTC 2017-11-18 14:33:17

Text
ID : 3
Format : Timed Text
Codec ID : tx3g
Duration : 46 min 38 s
Bit rate mode : Variable
Bit rate : 105 b/s
Stream size : 36.0 KiB (0%)
Forced : No
Encoded date : UTC 2017-11-18 14:33:17
Tagged date : UTC 2017-11-18 14:33:17


Screenshots:

Channel 4 - British Workers Wanted (2017)

Channel 4 - British Workers Wanted (2017)

Channel 4 - British Workers Wanted (2017)

Channel 4 - British Workers Wanted (2017)